<?xml version="1.0" standalone="no"?>
<!DOCTYPE svg PUBLIC "-//W3C//DTD SVG 1.1//EN" "http://www.w3.org/Graphics/SVG/1.1/DTD/svg11.dtd" >
<svg xmlns="http://www.w3.org/2000/svg">
<metadata>
<json>
<![CDATA[
{
	"fontFamily": "map-icons",
	"majorVersion": 3,
	"minorVersion": 0,
	"version": "Version 3.0",
	"fontId": "map-icons",
	"psName": "map-icons",
	"subFamily": "Regular",
	"fullName": "map-icons",
	"description": "Font generated by IcoMoon."
}
]]>
</json>
</metadata>
<defs>
<font id="map-icons" horiz-adv-x="1024">
<font-face units-per-em="1024" ascent="960" descent="-64" />
<missing-glyph horiz-adv-x="1024" />
<glyph unicode="&#x20;" horiz-adv-x="512" d="" />
<glyph unicode="&#xe800;" glyph-name="abseiling" data-tags="abseiling" d="M716.984 436.9c-6.697 26.481-40.407 47.391-65.741 35.144l-98.284-44.524v175.8l172.708 271.217c12.534 19.804 7.7 46.060-12.472 58.757-19.927 12.472-45.875 6.676-57.078-12.698l-144.732-230.502-87.265-0.225c-5.591 0-11.141-0.901-16.753-3.113l-150.856-58.757-77.722 117.043c-12.78 19.579-39.199 25.375-59.126 12.698s-25.743-39.158-12.964-58.962l96.993-145.961c10.977-16.916 34.038-24.474 53.514-16.466l111.432 42.947v-192.737l-151.491-335.606c-11.428-25.62 1.106-53.76 27.771-68.69s57.364-6.226 68.444 19.354l121.876 278.159c10.732-3.113 22.385-4.485 34.263-4.485 10.977 0 21.729 2.007 31.355 5.571l136.827 63.652 29.983-119.951c6.676-26.685 33.915-42.947 60.826-36.27 26.87 6.676 42.967 33.628 36.25 60.314l-47.759 188.293zM593.92 507.638v-31.805c204.8 102.769 284.221 454.779 284.221 484.168h-28.652c-10.752-73.421-91.73-367.124-255.57-452.362zM448.676 705.434c41.902 0 75.94 33.587 75.94 75.203 0 41.595-34.038 75.448-75.94 75.448s-75.94-33.833-75.94-75.448c0-41.615 34.038-75.203 75.94-75.203zM512-64h40.96v339.313l-40.96-32.113z" />
<glyph unicode="&#xe801;" glyph-name="accounting" data-tags="accounting" d="M839.68 939.52h-655.36c-45.056 0-81.92-36.864-81.92-81.92v-819.2c0-45.056 36.864-81.92 81.92-81.92h655.36c45.056 0 81.92 36.864 81.92 81.92v819.2c0 45.056-36.864 81.92-81.92 81.92zM348.16 120.32c0-22.528-18.432-40.96-40.96-40.96h-81.92c-22.528 0-40.96 18.432-40.96 40.96v20.48c0 22.528 18.432 40.96 40.96 40.96h81.92c22.528 0 40.96-18.432 40.96-40.96v-20.48zM348.16 284.16c0-22.528-18.432-40.96-40.96-40.96h-81.92c-22.528 0-40.96 18.432-40.96 40.96v20.48c0 22.528 18.432 40.96 40.96 40.96h81.92c22.528 0 40.96-18.432 40.96-40.96v-20.48zM348.16 448c0-22.528-18.432-40.96-40.96-40.96h-81.92c-22.528 0-40.96 18.432-40.96 40.96v20.48c0 22.528 18.432 40.96 40.96 40.96h81.92c22.528 0 40.96-18.432 40.96-40.96v-20.48zM593.92 120.32c0-22.528-18.432-40.96-40.96-40.96h-81.92c-22.528 0-40.96 18.432-40.96 40.96v20.48c0 22.528 18.432 40.96 40.96 40.96h81.92c22.528 0 40.96-18.432 40.96-40.96v-20.48zM593.92 284.16c0-22.528-18.432-40.96-40.96-40.96h-81.92c-22.528 0-40.96 18.432-40.96 40.96v20.48c0 22.528 18.432 40.96 40.96 40.96h81.92c22.528 0 40.96-18.432 40.96-40.96v-20.48zM593.92 448c0-22.528-18.432-40.96-40.96-40.96h-81.92c-22.528 0-40.96 18.432-40.96 40.96v20.48c0 22.528 18.432 40.96 40.96 40.96h81.92c22.528 0 40.96-18.432 40.96-40.96v-20.48zM839.68 120.32c0-22.528-18.432-40.96-40.96-40.96h-81.92c-22.528 0-40.96 18.432-40.96 40.96v20.48c0 22.528 18.432 40.96 40.96 40.96h81.92c22.528 0 40.96-18.432 40.96-40.96v-20.48zM839.68 284.16c0-22.528-18.432-40.96-40.96-40.96h-81.92c-22.528 0-40.96 18.432-40.96 40.96v20.48c0 22.528 18.432 40.96 40.96 40.96h81.92c22.528 0 40.96-18.432 40.96-40.96v-20.48zM839.68 448c0-22.528-18.432-40.96-40.96-40.96h-81.92c-22.528 0-40.96 18.432-40.96 40.96v20.48c0 22.528 18.432 40.96 40.96 40.96h81.92c22.528 0 40.96-18.432 40.96-40.96v-20.48zM839.68 632.32c0-22.528-18.432-40.96-40.96-40.96h-573.44c-22.528 0-40.96 18.432-40.96 40.96v163.84c0 22.528 18.432 40.96 40.96 40.96h573.44c22.528 0 40.96-18.432 40.96-40.96v-163.84z" />
<glyph unicode="&#xe802;" glyph-name="airport" data-tags="airport" d="M984.044 216.371c10.711-3.461 19.476 2.908 19.476 14.172v71.557c0 11.264-7.926 25.19-17.592 30.966l-374.415 223.13c-9.667 5.755-17.592 19.702-17.592 30.945v249.979c0 11.264-3.441 29.020-7.66 39.485 0 0-22.344 55.46-61.44 61.645-4.178 0.737-8.417 1.27-12.677 1.27-0.041 0-0.102 0-0.143 0-0.020 0-0.041 0-0.061 0-4.936 0.041-9.81-0.573-14.602-1.475-1.516-0.266-2.949-0.635-4.424-0.983-2.294-0.594-4.526-1.27-6.717-2.089-32.522-10.854-49.275-58.061-49.275-58.061-3.768-10.629-6.84-28.529-6.84-39.793v-249.979c0-11.264-7.926-25.19-17.592-30.966l-374.415-223.109c-9.667-5.775-17.592-19.702-17.592-30.966v-71.557c0-11.264 8.765-17.633 19.476-14.152l370.647 120.32c10.711 3.461 19.476-2.908 19.476-14.172v-195.236c0-11.264-7.373-26.030-16.384-32.788l-49.152-36.905c-9.011-6.758-16.384-21.524-16.384-32.788v-47.862c0-11.264 8.868-17.94 19.681-14.828l124.416 35.738c10.813 3.113 28.549 3.113 39.363 0l124.539-35.738c10.813-3.113 19.681 3.564 19.681 14.828v47.882c0 11.264-7.373 26.030-16.384 32.788l-49.152 36.905c-8.991 6.758-16.384 21.524-16.384 32.788v195.236c0 11.264 8.765 17.633 19.476 14.152l370.647-120.34z" />
<glyph unicode="&#xe803;" glyph-name="amusement-park" data-tags="amusement-park" d="M817.603 384.778c9.482-4.649 21.033-4.567 25.661 0.225 4.69 4.772 0.635 12.308-8.97 16.732l-167.485 77.578c-9.605 4.465-25.743 5.591-35.82 2.56l-59.904-17.961c-10.179-3.052-23.45-5.55-29.471-5.55s-11.039 8.479-11.039 18.883v182.661c0 10.383 8.663 18.903 19.272 18.903h434.36c10.65 0 19.292 8.499 19.292 18.903v61.338c0 10.404-8.335 21.34-18.473 24.31l-457.421 133.468c-10.138 2.97-26.767 2.97-36.905-0.041l-451.809-133.407c-10.117-2.97-18.412-13.947-18.412-24.33v-61.317c0-10.404 8.663-18.903 19.251-18.903h428.646c10.609 0 19.272-8.52 19.272-18.903v-182.764c0-10.383-8.663-18.903-19.272-18.924h-7.782c-10.609-0.020-25.477 5.919-33.096 13.169l-103.342 98.693c-7.639 7.27-22.508 13.189-33.116 13.189h-47.8c-10.568 0-23.327 6.246-28.303 13.844-4.936 7.619-16.445 13.804-25.559 13.804s-11.919-7.127-6.185-15.892l0.901-1.372c5.734-8.745 5.755-23.142 0.123-31.928l-51.692-80.364c-5.612-8.827-3.871-21.729 4.014-28.713l3.666-3.297c7.885-6.963 21.934-8.765 31.334-3.912l55.378 28.815c9.421 4.874 21.729 1.7 27.443-7.045l60.764-93.020c5.755-8.765 3.83-21.463-4.26-28.18l-27.791-23.204c-8.090-6.717-12.8-20.5-10.465-30.679l36.024-156.713c2.335-10.179 12.677-16.384 22.958-13.824l25.047 6.185c10.301 2.58 16.773 12.943 14.52 23.101l-24.392 105.984c-2.335 10.138 4.116 20.746 14.377 23.47l61.583 16.507c10.199 2.744 27.259 4.936 37.868 4.936h7.782c10.609 0 19.272-8.499 19.272-18.842v-187.945c0-10.363-8.663-18.862-19.272-18.862h-428.646c-10.588 0-19.251-8.479-19.251-18.924v-61.276c0-10.506 8.663-18.985 19.251-18.985h936.509c10.609 0 19.251 8.479 19.251 18.944v61.276c0 10.445-8.663 18.924-19.251 18.924h-426.373c-10.629 0-19.272 8.499-19.272 18.862v187.945c0 10.342 8.663 18.842 19.272 18.842h22.2c10.609 0 27.546-2.191 37.847-4.936l61.583-16.507c10.281-2.724 16.753-13.312 14.377-23.47l-24.33-105.984c-2.376-10.158 4.137-20.521 14.438-23.101l25.088-6.185c10.301-2.56 20.562 3.645 22.938 13.824l36.065 156.713c2.396 10.179-2.15 23.757-9.994 30.351-7.823 6.513-14.725 20.398-15.34 30.761l-3.133 55.439c-0.635 10.363 6.676 15.053 16.179 10.383l69.816-34.263z" />
<glyph unicode="&#xe804;" glyph-name="aquarium" data-tags="aquarium" d="M20.48 829.317c0 0 46.223-81.92 46.223-134.267s-45.957-130.15-45.957-130.15c0-12.165 8.212-16.302 17.94-9.339l151.204 108.462c30.536-22.548 90.358-52.47 133.796-77.046v-87.777l96.973 55.214c31.13-7.066 62.71-11.551 96.522-11.551 203.756 0 369.172 132.198 369.172 154.235 0 19.149-124.396 121.508-290.836 147.927l-185.057 94.495v-102.134c-86.753-24.044-175.493-73.912-220.549-107.192l-151.757 108.462c-9.708 6.984-17.674 2.826-17.674-9.339zM721.94 670.269c-23.982 0-43.459 19.722-43.459 44.093s19.476 44.073 43.459 44.073c24.023 0 43.377-19.702 43.377-44.073s-19.354-44.093-43.377-44.093zM1003.52 286.618c0 12.186-7.967 16.343-17.674 9.339l-151.020-108.503c-45.056 33.28-132.895 83.149-219.771 107.172v102.175l-185.795-94.474c-166.502-26.399-291.246-128.799-291.246-147.948 0-22.036 165.253-154.296 368.988-154.296 33.792 0 66.13 4.588 97.219 11.674l97.69-55.276v87.757c43.377 24.637 102.502 54.518 132.895 77.148l150.815-108.483c9.81-7.066 17.797-2.847 17.797 9.236 0 0-46.039 77.804-46.039 130.191 0.020 52.388 46.141 134.287 46.141 134.287zM332.083 155.791c-24.003 0-43.397 19.681-43.397 44.093 0 24.33 19.395 43.991 43.397 43.991 23.962 0 43.418-19.681 43.418-43.991 0-24.412-19.436-44.093-43.418-44.093z" />
<glyph unicode="&#xe805;" glyph-name="archery" data-tags="archery" d="M386.15 742.973c45.916 0 82.76 37.97 82.76 84.746 0 46.797-36.844 84.767-82.76 84.767-45.568 0-82.78-37.97-82.78-84.767 0-46.776 37.212-84.746 82.78-84.746zM409.6 714.24h-245.76c-40.96 0-40.96-61.44 0-61.44h245.76c40.96 0 40.96 61.44 0 61.44zM798.72 688.558c0 93.942-32.87 183.685-92.774 254.403 0.266 0.246-15.114 17.039-15.114 17.039l-237.036-242.483c0.717-1.065 1.761-1.782 2.212-2.99 3.584-6.533 5.571-13.804 6.39-21.053 0.246-2.99 0-6.083-0.348-9.175-0.451-6.308-1.638-12.493-4.28-18.35l-0.246-0.594c-0.573-1.065-0.819-2.376-1.495-3.564-0.451-0.84-0.942-2.294-1.516-2.99-10.24-16.097-27.771-26.481-49.070-26.481h-139.203v-308.941c0-0.246 0-18.473 0-18.739l-44.79-311.972c-4.895-25.702 14.684-50.708 39.793-55.706 25.108-5.263 61.317 14.029 66.437 39.997l40.96 348.16h20.48l69.427-350.781c5.12-25.969 41.001-42.639 66.335-37.376 24.904 4.997 38.789 30.003 33.894 55.706l-67.256 333.087v278.774l190.996-187.085c0 0 19.517 16.896 19.517 17.121 59.617 70.656 96.686 160.42 96.686 253.993zM756.511 652.8c-6.84-61.44-42.639-135.741-87.511-190.095-41.472 42.332-136.52 122.061-177.48 174.305v15.79h264.991zM756.511 714.24h-266.998c49.050 61.44 140.759 144.036 187.761 192 45.076-54.272 72.643-110.080 79.237-192z" />
<glyph unicode="&#xe806;" glyph-name="art-gallery" data-tags="art-gallery" d="M434.401 837.12c-258.703 0-413.921-207.524-413.921-311.296s51.732-181.596 155.218-181.596c103.485 0 155.238-25.928 155.238-103.752 0-103.752 77.599-181.576 181.084-181.576 336.323 0 491.52 181.576 491.52 363.151-0.020 311.296-258.765 415.068-569.139 415.068v0zM369.725 733.348c35.717 0 64.676-29.041 64.676-64.84 0-35.84-28.959-64.86-64.676-64.86s-64.676 29.041-64.676 64.86c0 35.799 28.959 64.84 64.676 64.84zM576.655 733.348c35.717 0 64.676-29.041 64.676-64.84 0-35.84-28.959-64.86-64.676-64.86-35.697 0-64.655 29.041-64.655 64.86 0 35.799 28.959 64.84 64.655 64.84zM783.626 629.596c35.738 0 64.696-29.020 64.696-64.86s-28.959-64.84-64.696-64.84c-35.717 0-64.655 29.020-64.655 64.84-0.020 35.82 28.938 64.86 64.655 64.86zM188.641 577.7c35.717 0 64.655-29.020 64.655-64.819 0-35.84-28.959-64.86-64.655-64.86s-64.676 29.041-64.676 64.86c0 35.799 28.959 64.819 64.676 64.819zM512 318.3c42.865 0 77.599-34.816 77.599-77.844 0-42.967-34.734-77.804-77.599-77.804s-77.599 34.836-77.599 77.804c0 43.028 34.734 77.844 77.599 77.844v0z" />
<glyph unicode="&#xe807;" glyph-name="assistive-listening-system" data-tags="assistive-listening-system" d="M492.831 652.8h19.784c110.592 0 174.162-107.95 174.592-179.261-0.43-13.885-3.871-27.013-19.579-26.706-33.137-0.307-21.32 55.112-48.722 100.413-12.902 22.364-54.436 64.594-101.765 64.594h-17.428c-25.395 0-73.155-16.896-105.206-65.208-40.12-58.204-13.763-102.134-47.452-101.929-5.161-0.225-20.009 3.011-19.784 27.136 1.516 109.507 101.888 180.961 165.56 180.961v0zM507.904 38.4c41.513 0 65.536 46.223 65.536 75.141v60.252c0 123.064 133.202 171.663 132.751 294.953 0.43 115.528-101.888 202.65-200.417 202.445-81.756 0.205-136.54-52.511-157.614-79.811-63.263-78.213-26.378-152.76-71.107-152.76-12.698 0-24.924 7.209-25.129 32.481-1.966 122.409 99.103 251.945 258.191 252.15 128.328-0.225 253.133-102.42 253.133-259.154 0-145.224-128.41-175.677-128.41-303.022v-54.436c0-56.033-48.722-120.033-130.683-120.381-2.99 0.881-5.775 1.946-9.646 2.376-15.053 4.506-25.272 18.063-21.606 33.546 4.342 13.455 17.142 16.22 33.935 16.22h1.065zM913.592 939.52h-58.286l-198.492-217.62c20.869-10.793 40.12-26.194 57.242-42.496 28.262-26.829 45.199-60.416 58.040-96.584l231.424 231.178v125.522c-73.277 0-46.060 0-89.928 0zM20.48-43.52h185.897l277.443 300.995-165.745 110.428-297.595-312.381v-4.628c0-46.694 0-35.901 0-94.413z" />
<glyph unicode="&#xe808;" glyph-name="atm" data-tags="atm" d="M847.974 511.734l-50.36 210.248c-8.827 36.68-45.998 59.72-82.883 50.668-32.44-7.926-48.21-30.392-54.6-46.203-7.557-18.657-41.288-103.199-49.172-120.668-2.765-6.062-8.602-9.257-9.789-9.789-6.697-2.97-73.728-31.252-73.728-31.252v-0.123c-13.23-6.205-22.405-19.436-22.405-34.877 0-21.361 17.49-38.687 39.055-38.687 4.649 0 9.073 0.963 13.23 2.437 0-0.020-0.041-0.082 0-0.143 0.43 0.184 88.986 36.987 88.986 36.987 12.206 5.693 18.166 12.902 24.228 23.409 2.54 4.424 10.26 22.938 16.548 38.134l53.699-224.563c-0.020-124.314-0.061-347.955-0.061-347.955-0.102-34.57 23.777-62.751 58.675-62.874 34.939-0.123 60.191 27.791 60.416 62.423 0 0 0.348 391.311 0.348 410.685-0.041 19.313-7.721 65.208-12.186 82.145zM732.242 861.286c0-43.207-35.347-78.234-78.95-78.234s-78.95 35.026-78.95 78.234c0 43.207 35.347 78.234 78.95 78.234s78.95-35.026 78.95-78.234zM350.843 200.151v-87.654c11.366 2.089 20.562 7.291 27.709 15.626 7.086 8.335 10.629 18.084 10.629 29.307 0 10.035-2.97 18.698-8.909 25.989-6.021 7.209-15.831 12.78-29.43 16.732zM296.694 336.282c-5.325-7.168-8.008-15.114-8.008-23.798 0-7.987 2.437-15.319 7.25-22.118 4.874-6.84 12.227-12.37 21.996-16.548v77.763c-8.909-2.99-16.015-8.11-21.238-15.299zM504.975 440.402h0.082l-122.368 245.494-0.020-0.225c-8.991 18.596-28.078 31.437-50.278 31.437h-112.783c-30.781 0.020-55.767-24.719-55.767-55.235v-430.162c0-0.061 0-0.123 0-0.184v-275.046h347.464v456.233c-0.041 9.912-2.314 19.292-6.328 27.689zM419.942 96.973c-16.589-18.575-39.608-29.962-69.038-34.14v-42.045h-32.911v40.919c-26.173 3.133-47.37 12.82-63.754 28.979-16.302 16.2-26.726 39.035-31.252 68.547l59.187 6.328c2.396-12.001 6.922-22.344 13.619-31.068 6.615-8.684 14.029-14.971 22.18-18.862v94.167c-29.614 8.397-51.384 21.115-65.167 38.052-13.865 16.998-20.787 37.622-20.787 61.911 0 24.576 7.803 45.22 23.511 61.952 15.647 16.691 36.454 26.337 62.464 28.856v22.262h32.911v-22.262c24.003-2.826 43.151-10.957 57.364-24.351 14.172-13.373 23.245-31.375 27.197-53.842l-57.364-7.414c-3.502 17.654-12.554 29.676-27.197 35.963v-87.859c36.27-9.769 60.989-22.385 74.158-37.868 13.128-15.524 19.722-35.41 19.722-59.679 0-27.116-8.274-49.951-24.842-68.547z" />
<glyph unicode="&#xe809;" glyph-name="audio-description" data-tags="audio-description" d="M527.892 550.4h-15.892v-184.32h15.892c48.804 0 88.084 43.5 88.084 92.303 0 48.538-39.281 92.017-88.084 92.017zM819.2 816.64h-614.4c-112.64 0-204.8-92.16-204.8-204.8v-286.72c0-112.64 92.16-204.8 204.8-204.8h614.4c112.64 0 204.8 92.16 204.8 204.8v286.72c0 112.64-92.16 204.8-204.8 204.8zM409.6 304.64h-81.92v40.96h-120.627l-28.037-40.96h-106.373l237.752 327.68h99.205v-327.68zM552.96 304.64h-122.88v327.68h107.581c91.341 0 163.82-74.281 163.82-165.888 0-91.361-57.16-161.792-148.521-161.792zM732.365 304.64h-28.283c36.536 40.96 57.324 97.772 57.324 155.587 0 65.065-26.296 131.133-72.335 172.093h40.837c41.021-61.44 64.061-108.278 64.061-172.093 0-56.791-18.022-114.627-51.077-155.587h-10.527zM815.944 304.64h-28.529c36.782 40.96 57.569 97.772 57.569 155.587 0 65.065-26.542 131.133-72.581 172.093h40.796c41.062-61.44 64.348-108.278 64.348-172.093 0-56.791-18.289-114.627-51.323-155.587h-10.281zM909.804 304.64h-39.055c36.782 40.96 57.569 97.772 57.569 155.587 0 65.065-26.542 131.133-72.581 172.093h40.796c41.062-61.44 64.348-108.278 64.348-172.093-0.020-56.812-18.309-114.627-51.077-155.587zM327.68 407.040v120.893l-75.080-120.893z" />
<glyph unicode="&#xe80a;" glyph-name="bakery" data-tags="bakery" d="M774.82 656.65c6.82-106.598-44.892-181.33-44.892-181.33 6.717 82.104-26.563 195.584-26.563 195.584-28.426 5.571-73.851-0.41-73.851-0.41 6.554-88.556-38.482-165.888-71.741-194.355 16.445 98.202-9.728 172.503-9.728 172.503-44.995 11.346-109.486 4.403-109.486 4.403 14.008-104.468-43.622-181.33-43.622-181.33 9.544 72.827-29.368 166.236-29.368 166.236-33.034 2.15-85.668-8.602-85.668-8.602 27.75-49.582 5.591-158.556 5.591-158.556-15.135 89.108-66.007 141.66-66.007 141.66-291.717-124.232-214.876-295.383-72.233-346.358 134.574-48.005 568.197-71.66 762.204 12.513 194.028 84.214 57.405 320.86-134.636 378.040z" />
<glyph unicode="&#xe80b;" glyph-name="bank" data-tags="bank" d="M710.287 431.596c-29.45 23.224-73.646 41.779-132.588 55.644l-45.22 10.67v193.126c2.007-0.881 4.198-1.536 6.124-2.499 38.38-19.436 59.003-56.218 61.829-97.178h153.928c-2.806 81.92-33.075 142.5-90.808 185.303-38.359 28.447-82.104 46.735-131.072 55.951v106.906h-143.36v-103.629c-66.294-8.192-118.866-29.532-157.471-64.225-50.545-45.425-75.796-102.441-75.796-171.090 0-75.223 25.825-130.519 77.476-165.888 28.918-20.050 81.039-38.666 155.791-55.91v-209.224c-27.259 7.516-48.62 19.886-63.672 37.765-14.52 17.367-24.248 35.881-29.204 76.841h-152.883c0-81.92 28.897-140.698 86.712-186.286 41.738-32.891 94.863-52.879 159.048-61.542v-79.852h143.36v78.5c68.26 8.172 123.372 29.962 165.11 65.618 54.129 46.285 81.203 104.448 81.203 174.469 0 68.301-22.835 120.463-68.506 156.529zM341.361 550.728c-24.883 13.517-37.315 34.038-37.315 61.44 0 29.819 12.616 53.187 37.847 69.816 13.312 8.786 29.164 15.176 47.227 19.395v-168.428c-22.221 6.472-38.257 12.411-47.759 17.777zM555.889 173.752c-7.107-2.458-15.032-4.485-23.409-6.267v178.115c24.678-7.311 44.155-15.278 58.327-23.839 22.364-13.865 33.567-33.587 33.567-58.88-0.020-43.336-22.856-73.175-68.485-89.129z" />
<glyph unicode="&#xe80c;" glyph-name="bar" data-tags="bar" d="M81.92 939.52l114.688-925.286c3.584-28.856 28.652-57.754 57.364-57.754h516.055c28.692 0 53.801 28.897 57.324 57.754l114.729 925.286h-860.16zM210.944 823.89h602.092l-26.87-231.322h-548.332l-26.89 231.322z" />
<glyph unicode="&#xe80d;" glyph-name="baseball" data-tags="baseball" d="M600.76 681.288c38.851 0 70.472 34.57 70.472 77.087 0 42.537-31.621 77.107-70.472 77.107-38.912 0-70.554-34.57-70.554-77.107 0-42.516 31.642-77.087 70.554-77.087zM796.283 8.049l-99.963 337.551v266.24c0 36.168-41.083 40.96-41.083 40.96h-134.39c0 0-17.674-10.138-29.327-20.48l-66.13-30.31-81.674 90.808c-13.312 17.285-36.803 20.5-52.613 5.96-16.015-14.541-16.835-40.571-3.543-58.081l104.12-113.766c7.107-8.212 16.855-13.681 27.873-13.681 8.11 0-3.932 2.888 2.335 7.557l69.632 29.594v-204.8l-106.004-336.896c-7.7-30.474 18.678-61.85 46.715-70.042 27.894-8.172 61.501 9.994 68.997 40.489l94.147 302.694 94.659-303.391c7.434-30.679 38.81-48.66 66.683-40.468 27.873 8.151 47.206 39.567 39.567 70.062zM269.046 602.132c3.523-3.973 9.564-4.076 13.312 0l1.249 1.147c3.564 4.116 3.768 10.691 0 14.664l-20.378 22.856c-3.768 4.096-9.81 4.096-13.558 0.102l-1.024-1.249c-3.727-4.096-3.953-10.588-0.205-14.561l20.603-22.958zM464.036 860.938l-120.32-142.254 14.602-16.261 134.246 126.566 89.252 89.948c3.564 4.321 5.816 9.994 5.816 16.159 0 13.64-9.994 24.781-22.262 24.904-6.021 0.102-11.223-2.396-15.36-6.267l-85.975-92.795z" />
<glyph unicode="&#xe80e;" glyph-name="beauty-salon" data-tags="beauty-salon" d="M712.315 823.521h-142.356c-25.723-0.082-24.76-38.42 0-38.195h142.356v-19.599h-142.356c-25.58 0.225-24.637-38.093 0-38.195h142.356v-20.029h-142.356c-25.58 0-24.637-38.298 0-38.195h142.356v-19.087h-142.356c-25.047-0.184-24.637-38.523 0-38.646h142.356v-19.128h-142.356c-25.047 0.082-25.149-38.195 0-38.195h142.356v-19.087h-142.356c-25.047-0.082-25.149-38.4 0-38.216h142.356v-19.558h-142.356c-25.047 0.225-25.149-38.052 0-38.195h142.356v-19.046h-142.356c-25.047 0.020-24.637-38.339 0-38.216h142.356v-371.896c0.082-56.668 86.159-55.644 86.405 0v870.298c-0.246 25.887-21.504 58.614-56.484 58.716h-172.278c-25.723-0.020-24.76-38.359 0-38.195l142.356-0.471v-19.046h-142.356c-25.682 0.123-24.719-38.195 0-38.216h142.356v-19.599zM560.169 164.188c-0.082 66.15-68.649 137.298-150.569 91.218v253.010l-52.982 417.28c-1.106 11.039-10.465 13.64-16.753 13.824-6.492-0.184-19.497-2.785-20.91-13.824l-52.716-417.28v-253.010c-81.92 46.080-148.275-25.518-148.296-90.706 0.020-57.999 44.667-105.636 105.083-105.492 60.867-0.143 104.653 53.248 104.653 105.492v262.82h20.48v-262.82c0-58.491 45.302-101.786 95.642-104.53-0.84-32.072 9.626-77.824 29.327-95.969 23.101-21.299 50.606 5.939 39.322 28.119-10.895 20.644-21.586 32.87-12.902 77.947 36.291 16.794 60.539 52.142 60.621 93.921zM225.362 112.148c-28.59 0.184-51.692 23.368-51.732 52.040 0.041 28.652 23.142 51.937 51.732 52.101 28.385-0.164 51.507-23.45 51.712-52.101-0.205-28.692-23.327-51.876-51.712-52.040zM400.896 164.188c0.184 28.652 23.265 51.937 51.732 52.101 28.508-0.164 51.63-23.45 51.712-52.101-0.082-28.672-23.183-51.855-51.712-52.040-28.467 0.164-51.569 23.347-51.732 52.040z" />
<glyph unicode="&#xe80f;" glyph-name="bicycle-store" data-tags="bicycle-store" d="M837.816 496.108c-25.928 0-50.565-5.325-72.95-14.889l-62.996 107.95 47.473 81.367c6.451 11.1 2.703 25.354-8.376 31.846-4.874 2.826-10.301 7.946-15.442 7.107-1.352 0.225-2.662 4.751-4.035 4.751h-93.123c-12.841 0-23.265-17.879-23.265-30.72 0-12.861 10.424-30.72 23.265-30.72h60.355l-27.177-40.96h-271.933l54.313 102.4h21.524c12.841 0 23.265 7.619 23.265 20.48s-10.424 20.48-23.265 20.48h-116.388c-12.82 0-23.265-7.619-23.265-20.48s10.424-20.48 23.265-20.48h40.94l-130.847-228.659c-22.405 9.564-47.084 12.698-72.991 12.698-102.81 0-186.163-84.46-186.163-187.269 0-102.83 83.354-186.716 186.184-186.716s186.184 83.087 186.184 185.917c0 60.211-28.713 113.48-73.114 147.538l49.828 85.32 142.828-244.859c0.164-0.266 0.369-0.512 0.553-0.778 0.184-0.348 0.41-0.635 0.614-0.922 0.164-0.266 0.287-0.471 0.471-0.696 0.573-0.758 1.208-1.454 1.843-2.13 0.061-0.082 0.143-0.164 0.225-0.266 0.205-0.205 0.41-0.389 0.635-0.573 0.205-0.184 0.43-0.369 0.655-0.532 0.573-0.492 1.188-1.004 1.802-1.434 0.246-0.184 0.492-0.328 0.758-0.492 0.205-0.123 0.389-0.246 0.594-0.389 0.082-0.041 0.143-0.102 0.246-0.143 0.020-0.041 0.061-0.041 0.082-0.082 0.635-0.348 1.29-0.655 1.966-0.963 0.082-0.061 0.143-0.082 0.225-0.102 0.143-0.061 0.307-0.184 0.471-0.246 0.041 0 0.102-0.041 0.164-0.041 0.471-0.205 1.004-0.369 1.495-0.532 0.471-0.164 0.922-0.348 1.393-0.451 0.102-0.020 0.205-0.020 0.287-0.082 0.184-0.020 0.348-0.041 0.512-0.082 0.287-0.061 0.594-0.102 0.901-0.184 1.393-0.266 2.765-0.43 4.178-0.43v0c0.020 0 0.020-1.27 0.020-1.27 0.041 0 0.061-1.208 0.082-1.208h141.128c11.51-81.92 89.661-161.69 184.586-161.69 102.83 0 186.184 83.988 186.184 186.819 0.020 102.81-83.333 186.798-186.163 186.798zM325.816 309.924c0-77.148-62.505-139.653-139.633-139.653s-139.633 62.525-139.633 139.653c0 77.107 62.505 139.612 139.633 139.612 17.347 0 33.894-3.297 49.213-9.093l-69.325-118.825c-6.472-11.080-2.703-25.334 8.397-31.846 3.686-2.13 7.721-3.154 11.694-3.154 8.008 0 15.79 4.137 20.132 11.53l69.345 118.907c30.638-25.62 50.176-64.102 50.176-107.131zM512 361.083l-122.388 209.797h244.797l-122.409-209.797zM674.898 538.952l49.848-87.409c-38.543-29.573-65.167-64.983-71.516-126.423h-100.721l122.388 213.832zM748.36 409.006l48.968-83.886h-97.034c5.612 40.96 23.060 62.976 48.067 83.886zM837.816 169.001c-69.161 0-126.464 53.719-137.544 115.159h137.482c0.061 0 0.061 1.208 0.102 1.208 1.393 0 2.785 0.819 4.157 1.085 0.328 0.082 0.614 0.43 0.942 0.471 1.27 0.307 2.56 0.84 3.871 1.352 0.123 0.061 0.266 0.266 0.43 0.328 0.758 0.348 1.536 0.758 2.314 1.188 0.184 0.102 0.348 0.307 0.553 0.43 0.696 0.451 1.352 0.983 2.068 1.495 0.532 0.451 1.147 0.881 1.597 1.352 0.573 0.512 1.065 1.106 1.556 1.7 0.471 0.532 1.004 1.106 1.393 1.741 0.41 0.553 0.819 1.249 1.167 1.884 0.369 0.655 0.737 1.27 1.065 1.946 0.307 0.696 0.532 1.413 0.799 2.13 0.246 0.696 0.471 1.393 0.635 2.13 0.184 0.737 0.246 1.393 0.348 2.13 0.123 0.881 0.225 1.638 0.266 2.519 0 0.246 0.061 0.471 0.061 0.717 0 0.43-0.102 0.86-0.102 1.311-0.082 0.881-0.143 1.679-0.287 2.54-0.102 0.758-0.307 1.413-0.471 2.171-0.205 0.717-0.389 1.413-0.676 2.13-0.328 0.799-0.676 1.556-1.065 2.314-0.205 0.41-0.348 0.819-0.553 1.208l-69.325 118.825c15.36 5.796 31.887 9.093 49.213 9.093 77.148 0 139.653-63.14 139.653-140.247 0.020-77.148-62.505-140.308-139.653-140.308z" />
<glyph unicode="&#xe810;" glyph-name="bicycling" data-tags="bicycling" d="M231.485 76.37c85.791 0 155.341 71.373 155.341 159.212 0 88.105-69.55 159.498-155.341 159.498-85.586 0-155.197-71.393-155.197-159.498 0-87.839 69.612-159.212 155.197-159.212zM40.96 235.581c0 108.052 85.484 195.502 190.525 195.502 105.349 0 190.669-87.45 190.669-195.502 0-108.012-85.32-195.215-190.669-195.215-105.042 0-190.525 87.204-190.525 195.215zM792.596 74.424c85.484 0 155.116 71.373 155.116 159.252 0 88.044-69.632 159.416-155.116 159.416-85.832 0-155.484-71.373-155.484-159.416 0-87.88 69.652-159.252 155.484-159.252zM601.805 233.677c0 108.012 85.484 195.441 190.792 195.441 104.96 0 190.444-87.429 190.444-195.441 0-107.848-85.484-195.277-190.444-195.277-105.308 0-190.792 87.429-190.792 195.277zM602.399 710.738c39.567 0 71.721 32.768 71.721 73.318 0 40.571-32.154 73.544-71.721 73.544s-71.7-32.973-71.7-73.544c0-40.571 32.133-73.318 71.7-73.318zM605.409 529.92c-10.404 0-21.606 6.226-29.839 19.681l-46.551 75.244-96.051-97.321 88.986-47.8c36.639-17.981 31.027-50.79 31.027-50.79v-206.766c0-23.45-18.104-42.516-40.96-42.516s-40.96 19.087-40.96 42.516v165.519l-154.706 87.88c-18.412 10.629-31.007 30.802-31.007 53.78 0 15.852 5.652 30.392 15.38 41.226l151.511 155.566c18.801 21.914 45.036 18.432 45.036 18.432 31.744 0 48.456-28.426 48.456-28.426l75.387-126.484 116.163 0.225c40.96 0 40.96-59.965 0-59.965h-131.871z" />
<glyph unicode="&#xe811;" glyph-name="boat-ramp" data-tags="boat-ramp" d="M174.080 814.756l195.891-54.047 108.728 76.411 37.827-9.318-107.704-76.636 593.613-164.925-43.438-161.423-595.825 164.475c-230.83 69.612-188.744 225.464-188.744 225.464zM695.439 401.756c-0.717 13.476-3.277 26.317-7.68 38.441l271.995-75.715-8.724-33.567-255.59 70.84zM448.328 469.996c7.332 10.67 16.015 20.296 25.887 28.631l-453.734 125.338v-36.106l427.848-117.862zM560.681 350.474c24.392 0 44.196 19.845 44.196 44.237 0 24.474-19.804 44.278-44.196 44.278-24.474 0-44.257-19.804-44.257-44.278 0-24.392 19.784-44.237 44.257-44.237zM1003.52 79.36c-21.524 0-42.004 4.874-60.273 13.271-19.005 8.602-40.202 13.763-62.403 13.763-22.118 0-43.438-5.161-62.157-13.763-18.534-8.397-38.973-13.271-60.518-13.271-21.524 0-42.045 4.874-60.518 13.271-18.842 8.602-39.997 13.763-62.157 13.763-22.241 0-43.397-5.161-62.362-13.763-18.289-8.397-39.014-13.271-60.436-13.271-21.402 0-42.004 4.874-60.396 13.271-18.964 8.602-40.284 13.763-62.382 13.763-22.118 0-43.418-5.161-62.157-13.763-18.391-8.397-39.096-13.271-60.539-13.271-21.402 0-42.004 4.874-60.518 13.271-18.76 8.602-40.059 13.763-62.177 13.763-22.098 0-43.397-5.161-62.259-13.763-18.371-8.397-39.096-13.271-60.396-13.271l-1.393 360.55 496.169-136.929c-34.202 16.527-57.958 51.2-57.958 91.73 0 56.402 45.609 102.052 101.97 102.052 56.197 0 101.929-45.65 101.929-102.052 0-56.361-45.711-101.99-101.929-101.99-3.4 0-6.758 0.676-10.035 0.963l452.157-124.682 0.737-89.641z" />
<glyph unicode="&#xe812;" glyph-name="boat-tour" data-tags="boat-tour" d="M983.040 120.32c-20.48 0-37.97 4.628-55.992 12.595-18.76 8.417-37.929 13.353-59.863 13.353-21.832 0-42.025-4.936-60.498-13.353-18.268-7.967-38.072-12.595-59.331-12.595-21.135 0-41.308 4.628-59.556 12.595-18.616 8.417-39.424 13.353-61.256 13.353-21.914 0-42.824-4.936-61.583-13.353-18.022-7.987-38.441-12.595-59.597-12.595s-41.574 4.628-59.638 12.595c-18.739 8.417-39.649 13.353-61.481 13.353-21.955 0-42.988-4.936-61.481-13.353-18.166-7.967-38.502-12.595-59.658-12.595-21.258 0-41.595 4.628-59.863 12.595-18.514 8.417-39.547 13.353-61.379 13.353s-42.988-4.936-61.604-13.353c-18.186-7.967-39.301-12.595-59.781-12.595v87.45c20.48 0 41.595 4.71 59.761 12.718 18.637 8.397 39.711 13.353 61.542 13.353s42.906-4.956 61.42-13.353c18.289-8.008 38.625-12.718 59.884-12.718 21.176 0 41.492 4.71 59.658 12.718 18.493 8.397 39.547 13.353 61.501 13.353 21.832 0 42.742-4.956 61.481-13.353 18.043-8.008 38.502-12.718 59.658-12.718s41.615 4.71 59.638 12.718c18.76 8.397 39.69 13.353 61.624 13.353 21.832 0 42.762-4.956 61.379-13.353 18.268-8.008 38.646-12.718 59.781-12.718 21.258 0 41.492 4.71 59.761 12.718 18.473 8.397 39.547 13.353 61.379 13.353 21.934 0 39.342-4.956 58.102-13.353 18.022-8.008 35.512-12.718 55.992-12.718v-87.45zM21.053 488.96l-0.348-202.957c21.156 0 41.492 6.369 59.658 14.356 18.637 8.438 39.67 14.275 61.481 14.275 21.832 0 42.865-4.485 61.379-12.923 18.289-8.008 38.605-12.37 59.863-12.37 21.176 0 41.492 4.69 59.658 12.677 18.493 8.438 39.547 13.435 61.481 13.435 21.832 0 42.742-4.895 61.481-13.332 18.043-8.008 38.502-12.575 59.658-12.575s41.615 4.608 59.638 12.595c18.76 8.438 39.69 13.373 61.624 13.373 21.832 0 42.762-4.936 61.379-13.373 18.268-8.008 38.646-12.575 59.781-12.575 5.98 0 11.715 1.249 17.572 1.905 10.67 2.232 21.484 3.256 31.846 7.291 0.225 0.102 0.471 0.225 0.696 0.348 77.005 30.556 143.421 102.625 184.893 159.048l20.726 30.802h-982.467zM569.426 714.24h144.261c1.618 0 38.953 5.755 51.487-21.565l54.211-121.795c-26.071 0-90.092 0-184.791 0l-65.167 143.36zM184.32 583.537c0-9.544-7.864-12.657-17.51-12.657h-79.319c-9.667 0-26.051 3.113-26.051 12.657v117.33c0 9.421 16.384 13.373 26.051 13.373h79.299c9.667 0 17.531-3.953 17.531-13.373v-117.33zM512 583.537c0-9.544-8.561-12.657-18.33-12.657h-79.196c-9.769 0-25.354 3.113-25.354 12.657v117.33c0 9.421 15.585 13.373 25.354 13.373h79.196c9.769 0 18.33-3.953 18.33-13.373v-117.33zM348.16 583.537c0-9.544-8.52-12.657-18.268-12.657h-78.725c-9.789 0-25.887 3.113-25.887 12.657v117.33c0 9.421 16.097 13.373 25.887 13.373h78.725c9.748 0 18.268-3.953 18.268-13.373v-117.33zM789.402 728.474c-23.572 51.241-87.368 47.206-87.368 47.206h-681.452l-0.102-245.76h854.323l-85.402 198.554z" />
<glyph unicode="&#xe813;" glyph-name="boating" data-tags="boating" d="M1024 140.8c-20.48 0-41.103 4.833-58.9 13.046-18.289 8.684-38.932 13.804-60.293 13.804-21.647 0-42.25-5.12-60.58-13.804-18.022-8.192-37.97-13.046-58.88-13.046-20.644 0-40.858 4.833-58.634 13.046-18.33 8.684-38.953 13.804-60.539 13.804-21.402 0-42.066-5.12-60.314-13.804-18.084-8.212-38.031-13.046-58.921-13.046s-40.858 4.833-58.655 13.046c-18.289 8.684-38.953 13.804-60.498 13.804-21.627 0-42.025-5.12-60.334-13.804-18.022-8.212-37.949-13.046-58.86-13.046s-40.714 4.833-58.532 13.046c-18.514 8.684-38.953 13.804-60.559 13.804s-36.209-5.12-54.743-13.804c-17.797-8.212-32.358-13.046-52.838-13.046v89.661c20.48 0 35.041 4.833 52.838 13.046 18.514 8.458 36.045 13.578 57.651 13.578s40.571-5.12 59.105-13.578c17.818-8.192 36.905-13.046 57.815-13.046s40.468 4.833 58.511 13.046c18.309 8.458 38.523 13.578 60.15 13.578 21.545 0 42.107-5.12 60.396-13.578 17.797-8.192 37.704-13.046 58.593-13.046s40.817 4.833 58.88 13.046c18.268 8.458 38.892 13.578 60.293 13.578 21.586 0 42.23-5.12 60.539-13.578 17.777-8.192 37.99-13.046 58.634-13.046 20.91 0 40.858 4.833 58.88 13.046 18.33 8.458 38.932 13.578 60.58 13.578 21.361 0 42.025-5.12 60.293-13.578 17.797-8.192 38.42-13.046 58.9-13.046v-89.661zM784.138 515.297l173.384-13.783-13.087 90.173-127.283 9.155c-34.406 1.7-29.45-33.362-29.45-33.362l-3.564-52.183zM462.623 535.839c31.846 0 57.487 26.092 57.487 58.47 0 32.399-25.62 58.47-57.487 58.47-31.805 0-57.385-26.092-57.385-58.47s25.58-58.47 57.385-58.47zM107.827 310.456c7.352 2.171 14.5 5.059 21.135 8.212 18.534 8.684 38.953 13.783 60.559 13.783s42.045-5.1 60.559-13.783c17.818-8.212 37.622-13.046 58.532-13.046s40.837 4.813 58.88 13.046c18.309 8.684 38.707 13.783 60.334 13.783 21.545 0 42.209-5.1 60.498-13.783 17.797-8.212 37.765-13.046 58.655-13.046s40.837 4.813 58.9 13.046c18.268 8.684 38.912 13.783 60.314 13.783 21.586 0 42.23-5.1 60.539-13.783 17.777-8.212 37.99-13.046 58.634-13.046 20.91 0 40.858 4.813 58.88 13.046 18.33 8.684 38.932 13.783 60.58 13.783 21.361 0 42.025-5.1 60.293-13.783 17.797-8.212 37.765-13.046 58.675-13.046l-19.497 159.887-720.65 61.399 108.769 111.657-47.739 4.342-108.626-111.903-236.032 19.825c-1.434-81.92 88.31-218.132 107.807-240.374v0z" />
<glyph unicode="&#xe814;" glyph-name="book-store" data-tags="book-store" d="M839.68 140.8v696.32c0 45.056-36.864 81.92-81.92 81.92h-491.52c-45.056 0-81.92-36.864-81.92-81.92v-778.24c0-45.056 36.864-81.92 81.92-81.92h491.52c38.052 0 81.92 0 81.92 40.96 0 8.52 0 0 0 20.48h-552.96c-22.528 0-40.96 18.432-40.96 40.96v61.44h593.92zM286.72 755.2c0 11.264 9.216 20.48 20.48 20.48h409.6c11.264 0 20.48-9.216 20.48-20.48v-40.96c0-11.264-9.216-20.48-20.48-20.48h-409.6c-11.264 0-20.48 9.216-20.48 20.48v40.96zM286.72 591.36c0 11.264 9.216 20.48 20.48 20.48h409.6c11.264 0 20.48-9.216 20.48-20.48v-40.96c0-11.264-9.216-20.48-20.48-20.48h-409.6c-11.264 0-20.48 9.216-20.48 20.48v40.96z" />
<glyph unicode="&#xe815;" glyph-name="bowling-alley" data-tags="bowling-alley" d="M646.554 342.385c0 0-38.441 96.113-75.735 187.884 0 0-12.493 55.153-2.724 128.348 0 0 26.542 111.882 11.776 164.782 0 0-22.671 45.322-69.775 48.476 0 0-65.004-4.588-77.148-67.83 0 0-3.174-36.454 6.922-78.52 0 0 36.393-139.203-3.523-230.052 0 0-55.685-116.347-60.109-142.991 0 0-20.849-113.992-0.328-197.939 0 0 43.090-143.626 74.629-191.201 0 0 63.98-16.323 118.866 1.454 0 0 65.802 106.537 78.95 202.813 0.041 0 16.466 101.724-1.802 174.776zM851.538 410.051c0 0-38.42 96.133-75.878 187.863 0 0-12.472 55.173-2.744 128.246 0 0 26.583 111.882 11.776 164.905 0 0-22.569 45.322-69.714 48.435 0 0-65.024-4.567-77.148-67.789 0 0-3.195-36.475 7.025-78.541 0 0 36.413-139.325-3.625-230.031 0 0-8.643-18.248-19.415-41.636 34.959-85.914 68.547-169.841 68.547-169.841l0.532-1.454 0.348-1.434c19.21-76.411 2.867-179.139 2.273-182.948-6.226-45.752-23.47-92.529-40.489-130.662 0.758-1.372 1.7-2.949 2.519-4.157 0 0 63.918-16.343 118.866 1.556 0 0 65.761 106.394 78.93 202.732 0 0.020 16.486 101.724-1.802 174.756zM393.728 504.197c2.171 4.772 3.973 10.035 5.673 15.196-9.994 24.822-20.89 51.487-31.642 78.070 0 0-12.616 55.296-2.744 128.348 0 0 26.563 111.78 11.817 164.803 0 0-22.671 45.343-69.796 48.456 0 0-65.065-4.69-77.128-67.666 0 0-3.154-36.618 7.045-78.561 0 0 36.413-139.284-3.625-230.134 0 0-55.685-116.367-60.129-142.991 0 0-20.869-114.012-0.328-197.939 0 0 43.090-143.647 74.609-191.099 0 0 64-16.466 118.866 1.475 0 0 1.27 1.987 3.42 5.693-20.070 52.797-36.495 107.151-37.745 111.534-21.34 87.491-0.799 202.158 0 206.541 4.628 28.344 52.408 129.024 61.706 148.275z" />
<glyph unicode="&#xe816;" glyph-name="braille" data-tags="braille" d="M81.92 140.8h100.229c37.642 0 63.222-13.394 63.222-50.463 0-19.415-9.646-33.669-26.788-41.984 24.125-6.881 36.434-27.812 36.434-52.572 0-40.284-34.263-59.781-70.226-59.781h-102.871v204.8zM122.88 58.88h53.719c15.196 0 26.522 4.239 26.522 20.91 0 18.924-14.479 20.050-29.901 20.050h-50.34v-40.96zM122.88-23.040h56.136c17.367 0 32.338 8.991 32.338 29.635 0 20.234-12.8 31.805-31.375 31.805h-57.098v-61.44zM286.72 79.36h40.96v-20.48h0.451c7.25 20.48 29.88 29.655 49.193 29.655 2.662 0 11.796-1.577 11.796-2.417v-36.7c-20.48 0.86-13.578 1.331-18.166 1.331-28.959 0-43.274-20.767-43.274-46.1v-68.649h-40.96v143.36zM406.098 38.4c2.171 40.96 33.28 48.66 65.372 48.66 28.713 0 61.010-5.898 61.010-40.407v-74.813c0-13.025 5.591-35.84 9.236-35.84h-39.813c-1.454 0-2.662 11.1-2.908 15.811-12.554-13.046-30.884-16.773-48.251-16.773-27.279 0-48.988 14.111-48.988 43.561 0 32.604 24.351 40.305 48.988 43.93 24.146 3.379 46.572 2.888 46.572 18.964 0 16.998-11.571 19.108-25.58 19.108-14.95 0-24.617-1.7-26.051-22.18h-39.588zM491.52 10.199c0-5.775-17.592-6.021-29.921-8.294-12.308-2.54-21.975-6.636-21.975-21.135 0-14.705 9.421-18.33 22.2-18.33 30.884 0 29.676 24.474 29.676 33.055v14.705zM617.759 105.902h-39.608v32.461h39.608v-32.461zM573.44 79.36h40.96v-143.36h-40.96v143.36zM655.36 140.8h40.96v-204.8h-40.96v204.8zM737.28 140.8h40.96v-204.8h-40.96v204.8zM853.996-2.56c1.229-20.48 13.251-37.683 35.246-37.683 15.933 0 28.713 17.203 31.13 17.203h34.734c-11.080-20.48-34.734-44.687-67.072-44.687-45.343 0-73.359 32.973-73.359 77.537 0 43.049 29.696 74.465 73.359 74.465 48.763 0 72.417-45.875 69.734-86.835h-103.772zM918.2 17.92c-3.625 20.48-12.063 30.515-31.375 30.515-25.108 0-32.338-10.035-32.829-30.515h64.205zM368.64 294.4c0-39.588-32.092-71.68-71.68-71.68s-71.68 32.092-71.68 71.68c0 39.588 32.092 71.68 71.68 71.68s71.68-32.092 71.68-71.68zM368.64 581.12c0-39.588-32.092-71.68-71.68-71.68s-71.68 32.092-71.68 71.68c0 39.588 32.092 71.68 71.68 71.68s71.68-32.092 71.68-71.68zM368.64 867.84c0-39.588-32.092-71.68-71.68-71.68s-71.68 32.092-71.68 71.68c0 39.588 32.092 71.68 71.68 71.68s71.68-32.092 71.68-71.68zM798.72 294.4c0-39.588-32.092-71.68-71.68-71.68s-71.68 32.092-71.68 71.68c0 39.588 32.092 71.68 71.68 71.68s71.68-32.092 71.68-71.68zM798.72 581.12c0-39.588-32.092-71.68-71.68-71.68s-71.68 32.092-71.68 71.68c0 39.588 32.092 71.68 71.68 71.68s71.68-32.092 71.68-71.68zM798.72 867.84c0-39.588-32.092-71.68-71.68-71.68s-71.68 32.092-71.68 71.68c0 39.588 32.092 71.68 71.68 71.68s71.68-32.092 71.68-71.68z" />
<glyph unicode="&#xe817;" glyph-name="bus-station" data-tags="bus-station" d="M842.998 448h-655.77c-19.108 0-34.836 16.425-34.836 35.103 0 3.113 0.573 6.636 1.208 9.462l34.898 243.692c2.97 15.831 17.224 18.944 34.284 18.944h584.765c16.937 0 31.314-2.847 34.243-18.616l34.898-248.136c0.532-2.888 1.229-4.588 1.229-7.7-0.020-18.678-15.831-32.748-34.918-32.748zM816.763 174.694c-36.925 0-66.867 29.061-66.867 65.29 0 35.983 29.942 65.004 66.867 65.004 36.68 0 66.683-29.020 66.683-65.004 0-36.229-30.003-65.29-66.683-65.29zM212.582 174.694c-36.659 0-66.621 29.061-66.621 65.29 0 35.983 29.962 65.004 66.621 65.004 37.028 0 66.929-29.020 66.929-65.004 0-36.229-29.901-65.29-66.929-65.29zM327.68 898.56h409.6v-61.44h-409.6c-40.96 0-40.96 61.44 0 61.44zM905.257 804.557c-11.96 57.61-46.899 80.814-103.895 103.997-56.893 23.101-188.744 50.79-287.908 50.79-99.594 0-232.12-27.709-289.075-50.79-56.975-23.204-91.341-46.387-103.199-103.997l-39.26-320.696v-445.46h61.44v-40.96c0-81.92 102.4-81.92 102.4 0v40.96h512v-40.96c0-81.92 122.88-81.92 122.88 0v40.96h61.44v445.46l-36.823 320.696z" />
<glyph unicode="&#xe818;" glyph-name="cafe" data-tags="cafe" d="M757.76 816.64h-573.44v-552.96c0-45.056 36.864-81.92 81.92-81.92h409.6c45.056 0 81.92 36.864 81.92 81.92v102.4c124.436 0 225.28 100.864 225.28 225.28s-100.844 225.28-225.28 225.28zM757.76 468.48v245.76c67.871 0 122.88-55.009 122.88-122.88 0-67.85-55.009-122.88-122.88-122.88zM40.96 140.8v-47.124c0-38.83 42.373-55.276 94.208-55.276h753.664c51.814 0 94.208 16.445 94.208 55.276v47.124h-942.080z" />
<glyph unicode="&#xe819;" glyph-name="campground" data-tags="campground" d="M512 837.12c-25.866 0-37.56-12.616-45.261-26.337l-321.741-605.635h-69.53c-30.351 0-54.989-23.45-54.989-52.654 0-29.143 24.637-52.634 54.989-52.634h873.103c30.331 0 54.989 23.491 54.989 52.634 0 29.225-24.637 52.654-54.989 52.654h-69.571l-321.72 605.655c-7.721 13.701-19.395 26.317-45.281 26.317v0zM512 573.809l181.084-368.66h-362.168l181.084 368.66z" />
<glyph unicode="&#xe81a;" glyph-name="canoe" data-tags="canoe" d="M357.11 696.115c50.463 0 91.136 40.817 91.136 91.054 0 50.217-40.694 90.911-91.136 90.911-50.36 0-91.156-40.694-91.156-90.911-0.020-50.237 40.796-91.054 91.156-91.054zM20.48 198.82c20.48 0 41.964 4.915 60.355 13.169 18.883 8.724 40.284 13.844 62.423 13.844 22.159 0 43.52-5.12 62.3-13.844 18.514-8.233 39.178-13.046 60.723-13.046 21.443 0 42.086 4.792 60.498 13.046 18.76 8.724 40.1 13.844 62.382 13.844 22.139 0 43.336-5.12 62.341-13.844 18.309-8.233 39.055-13.046 60.498-13.046s42.189 4.792 60.477 13.046c19.005 8.724 40.243 13.844 62.484 13.844 22.159 0 43.356-5.12 62.239-13.844 18.514-8.233 39.178-13.046 60.641-13.046 21.504 0 42.086 4.792 60.6 13.046 18.76 8.724 40.079 13.844 62.218 13.844 19.005 0 37.437-3.625 54.067-10.117 27.075 29.512 43.868 68.813 43.868 111.841 0 91.628-74.363 165.806-166.093 165.806l-18.616-1.987c-20.419-82.678-103.301-86.159-103.301-86.159l-379.29 0.102-31.703 18.616 76.452 128 83.702-48.251c50.115-32.42 76.206 13.025 76.206 13.025l83.927 136.52c36.475 59.31-40.899 106.865-77.148 47.329l-58.757-95.683-139.633 77.087c-96.768 53.842-137.769-35.348-137.769-35.348l-109.67-187.433c-18.657-38.953-2.13-55.685-2.13-55.685l-54.292 0.082v-204.759zM1003.52 17.92c-21.463 0-42.086 4.751-60.375 13.025-18.985 8.724-40.223 13.824-62.484 13.824-22.139 0-43.459-5.1-62.218-13.824-18.514-8.274-39.096-13.025-60.6-13.025-21.463 0-42.127 4.751-60.641 13.025-18.883 8.724-40.079 13.824-62.239 13.824-22.241 0-43.479-5.1-62.484-13.824-18.289-8.274-39.035-13.025-60.477-13.025-21.422 0-42.189 4.751-60.498 13.025-19.005 8.724-40.202 13.824-62.341 13.824-22.262 0-43.602-5.1-62.362-13.824-18.412-8.274-39.055-13.025-60.498-13.025-21.565 0-42.209 4.751-60.723 13.025-18.78 8.724-40.1 13.824-62.259 13.824-22.139 0-43.479-5.1-62.341-13.824-18.412-8.274-39.055-13.025-60.498-13.025v90.46c21.443 0 42.086 4.874 60.498 13.148 18.883 8.704 40.202 13.824 62.341 13.824 22.159 0 43.5-5.12 62.259-13.824 18.514-8.253 39.158-13.148 60.723-13.148 21.443 0 42.086 4.874 60.498 13.148 18.76 8.704 40.1 13.824 62.362 13.824 22.139 0 43.336-5.12 62.341-13.824 18.309-8.253 39.055-13.148 60.498-13.148s42.189 4.874 60.477 13.148c19.005 8.704 40.243 13.824 62.484 13.824 22.159 0 43.356-5.12 62.239-13.824 18.514-8.253 39.178-13.148 60.641-13.148 21.504 0 42.086 4.874 60.6 13.148 18.76 8.704 40.079 13.824 62.218 13.824 22.262 0 43.5-5.12 62.484-13.824 18.309-8.253 38.912-13.148 60.375-13.148v-90.46z" />
<glyph unicode="&#xe81b;" glyph-name="car-dealer" data-tags="car-dealer" d="M978.596 716.636c-14.090 11.1-51.876 20.009-80.159 26.644l-38.277 5.12v92.529c0-0.41 18.678 0.758 19.599 0.307 18.371-9.318 44.831-24.596 46.203-45.076h73.81c-1.372 40.96-32.481 66.806-60.17 87.327-18.371 13.619-38.482 20.89-79.442 25.293v51.22h-40.96v-49.644c-40.96-3.932-54.19-14.131-72.684-30.781-24.187-21.77-34.959-49.091-34.959-81.981 0-36.045 10.301-62.525 35.062-79.483 13.844-9.605 31.621-18.534 72.581-26.808v-100.25c-20.48 3.625-20.521 2.703-27.75 11.284-6.963 8.315-8.868 29.983-11.244 29.983h-73.236c0-40.96 11.080-60.58 38.81-82.432 19.988-15.749 32.461-18.534 73.421-22.671v-38.257h40.96v37.601c40.96 3.953 75.756 14.377 95.764 31.457 25.969 22.18 47.206 50.053 47.206 83.599-0.020 32.727-2.642 57.713-24.535 75.018zM799.089 773.693c-11.919 6.492-16.507 16.323-16.507 29.45 0 14.295 3.953 25.477 16.036 33.464 6.369 4.198 0.102 7.25 20.582 9.277v-80.691c-20.48 3.113-15.606 5.939-20.111 8.499zM888.033 593.060c-3.441-1.188-27.873-2.13-27.873-2.97v85.34c40.96-3.523 37.806-7.311 44.605-11.428 10.67-6.636 16.036-16.097 16.036-28.201 0-20.808-10.957-35.082-32.768-42.742zM788.89 345.6h-11.325l-125.829 227.84c-5.427 9.851-19.108 17.92-30.372 17.92h-381.768c-11.264 0-24.945-8.069-30.372-17.92l-125.829-227.84h-11.305c-22.548 0-51.61-18.432-51.61-40.96v-204.8c0-22.528 29.061-40.96 51.61-40.96h30.31v-61.44c0-33.792 38.298-61.44 72.090-61.44h20.48c33.792 0 50.79 27.648 50.79 61.44v61.44h348.16v-61.44c0-33.792 38.277-61.44 72.090-61.44h20.48c33.792 0 50.79 27.648 50.79 61.44v61.44h51.61c22.528 0 30.31 18.432 30.31 40.96v204.8c0 22.528-7.803 40.96-30.31 40.96zM143.77 181.76c-28.283 0-51.2 22.917-51.2 51.2s22.917 51.2 51.2 51.2 51.2-22.917 51.2-51.2-22.938-51.2-51.2-51.2zM184.73 345.6l83.005 165.99c5.018 10.097 18.371 18.33 29.635 18.33h266.24c11.264 0 24.596-8.233 29.635-18.33l83.005-165.99h-491.52zM717.21 181.76c-28.283 0-51.2 22.917-51.2 51.2s22.917 51.2 51.2 51.2 51.2-22.917 51.2-51.2-22.938-51.2-51.2-51.2z" />
<glyph unicode="&#xe81c;" glyph-name="car-rental" data-tags="car-rental" d="M839.68 878.080h-387.543c-30.781 40.96-81.224 76.841-138.281 76.841-93.737 0-169.718-73.236-169.718-166.973 0-93.757 75.981-164.598 169.718-164.598 71.291 0 132.28 49.93 157.45 111.37h56.422l40.899 40.919 40.878-40.919h25.498l40.878 40.919 40.899-40.919h25.477l40.899 40.919 40.899-40.919h15.626v-5.755l-3.564-0.84 80.691 79.094-77.128 70.861zM258.929 742.707c-27.116 0-49.132 22.016-49.132 49.172s22.016 49.152 49.132 49.152c27.156 0 49.172-21.996 49.172-49.152s-22.016-49.172-49.172-49.172zM880.64 345.6h-11.325l-125.829 227.84c-5.427 9.851-19.108 17.92-30.372 17.92h-381.747c-11.264 0-24.945-8.069-30.372-17.92l-125.85-227.84h-11.305c-22.528 0-40.96-18.432-40.96-40.96v-204.8c0-22.528 18.432-40.96 40.96-40.96h40.96v-61.44c0-33.792 27.648-61.44 61.44-61.44h20.48c33.792 0 61.44 27.648 61.44 61.44v61.44h348.16v-61.44c0-33.792 27.648-61.44 61.44-61.44h20.48c33.792 0 61.44 27.648 61.44 61.44v61.44h40.96c22.528 0 40.96 18.432 40.96 40.96v204.8c0 22.528-18.432 40.96-40.96 40.96zM235.52 181.76c-28.283 0-51.2 22.917-51.2 51.2s22.917 51.2 51.2 51.2 51.2-22.917 51.2-51.2-22.917-51.2-51.2-51.2zM276.48 345.6l83.005 165.99c5.038 10.097 18.371 18.33 29.635 18.33h266.24c11.264 0 24.596-8.233 29.635-18.33l83.005-165.99h-491.52zM808.96 181.76c-28.283 0-51.2 22.917-51.2 51.2s22.917 51.2 51.2 51.2 51.2-22.917 51.2-51.2-22.917-51.2-51.2-51.2z" />
<glyph unicode="&#xe81d;" glyph-name="car-repair" data-tags="car-repair" d="M438.968 802.529l-49.848-67.809h-116.408c14.356-40.96 61.358-79.585 126.996-66.765 19.456 1.311 85.094 11.735 112.292 5.325 36.209-8.684 21.115-8.724 86.036-60.826l323.564-266.854c19.825-17.51 45.179-10.342 62.73 9.441 17.551 19.825 18.534 54.968-1.29 72.479l-409.6 327.68c-25.641 20.582-32.113 49.091-40.96 81.92-17.203 56.422-80.466 101.683-142.561 101.683-50.033 0-103.875-43.274-123.679-81.203h122.88l49.848-55.071zM719.954 304.64v0l-126.607 219.75c-4.997 9.114-17.633 26.010-28.017 26.010h-352.42c-10.383 0-23.020-16.896-28.037-26.010l-123.433-219.75h-3.154c-20.787 0-37.806-7.557-37.806-28.365v-189.030c0-20.808 17.019-28.365 37.806-28.365h44.114v-66.15c0-31.212 19.21-56.73 50.401-56.73h18.903c31.212 0 53.576 25.518 53.576 56.73v66.15h327.68v-66.15c0-31.191 22.364-56.73 53.555-56.73h18.903c31.212 0 50.422 25.518 50.422 56.73v66.15h44.114c20.787 0 37.806 7.557 37.806 28.365v189.030c0 20.808-17.019 28.365-37.806 28.365zM124.457 162.857c-26.112 0-47.268 21.156-47.268 47.268s21.156 47.268 47.268 47.268c26.092 0 47.268-21.156 47.268-47.268s-21.156-47.268-47.268-47.268zM162.263 304.64l76.616 160.317c4.649 9.298 16.978 24.003 27.361 24.003h245.76c10.383 0 22.692-14.705 27.361-24.003l76.616-160.317h-453.714zM653.783 162.857c-26.092 0-47.268 21.156-47.268 47.268s21.156 47.268 47.268 47.268 47.268-21.156 47.268-47.268-21.176-47.268-47.268-47.268z" />
<glyph unicode="&#xe81e;" glyph-name="car-wash" data-tags="car-wash" d="M880.64 837.12v81.92h-737.28v-81.92h-143.36v-880.64h81.92v798.72h61.44v-81.92h737.28v81.92h61.44v-798.72h81.92v880.64zM861.225 366.080v0l-133.632 227.84c-5.304 9.851-18.637 17.92-29.614 17.92h-371.978c-10.977 0-24.31-8.069-29.594-17.92l-133.612-227.84c-21.955 0-39.916-18.432-39.916-40.96v-204.8c0-22.528 17.961-40.96 39.916-40.96h42.004v-61.44c0-33.792 24.842-61.44 57.754-61.44h19.968c32.911 0 65.638 27.648 65.638 61.44v61.44h327.68v-61.44c0-33.792 32.707-61.44 65.638-61.44h19.968c32.911 0 57.754 27.648 57.754 61.44v61.44h42.025c21.934 0 39.895 18.432 39.895 40.96v204.8c0 22.528-17.961 40.96-39.895 40.96zM232.632 202.24c-27.546 0-49.889 22.917-49.889 51.2s22.344 51.2 49.889 51.2c27.566 0 49.889-22.917 49.889-51.2s-22.323-51.2-49.889-51.2zM262.554 366.080l90.849 166.011c4.915 10.076 17.92 18.309 28.877 18.309h259.42c10.977 0 23.982-8.233 28.877-18.309l90.87-166.011h-498.893zM791.368 202.24c-27.546 0-49.889 22.917-49.889 51.2s22.344 51.2 49.889 51.2c27.566 0 49.91-22.917 49.91-51.2s-22.364-51.2-49.91-51.2z" />
<glyph unicode="&#xe81f;" glyph-name="casino" data-tags="casino" d="M1003.52 745.185c12.37 9.359 20.48 24.023 20.48 40.735 0 28.283-22.917 51.2-51.2 51.2s-51.2-22.917-51.2-51.2c0-16.691 8.11-31.375 20.48-40.735v-317.665h-184.32v-163.84h204.8v6.083c30.003 12.165 51.2 41.452 51.2 75.837 0 14.152-3.912 27.279-10.24 38.892v360.694zM122.88 611.84c20.91 0 35.43-3.523 61.44 0 0 0-82.248-54.6-82.248-122.88h102.728c0 0 0.123 113.746 61.44 184.32l-20.48 20.48c0 0-40.96-20.48-81.92 0 0 0-40.96 0-81.92-20.48v20.48h-20.48v-122.88h20.48c0 0 0 40.96 40.96 40.96zM409.6 611.84c20.91 0 35.43-3.523 61.44 0 0 0-82.248-54.6-82.248-122.88h102.728c0 0 0.123 113.746 61.44 184.32l-20.48 20.48c0 0-40.96-20.48-81.92 0 0 0-40.96 0-81.92-20.48v20.48h-20.48v-122.88h20.48c0 0 0 40.96 40.96 40.96zM778.24 816.64v40.96h-248.218c-9.339 41.001-45.855 71.68-89.702 71.68s-80.364-30.679-89.702-71.68h-248.218v-40.96h-102.4v-839.68h901.12v839.68h-122.88zM327.68 734.72h245.76v-286.72h-245.76v286.72zM40.96 734.72h245.76v-286.72h-245.76v286.72zM778.24 79.36h-675.84v143.36h675.84v-143.36zM860.16 448h-245.76v286.72h245.76v-286.72zM696.32 611.84c20.91 0 35.43-3.523 61.44 0 0 0-82.248-54.6-82.248-122.88h102.728c0 0 0.123 113.746 61.44 184.32l-20.48 20.48c0 0-40.96-20.48-81.92 0 0 0-40.96 0-81.92-20.48v20.48h-20.48v-122.88h20.48c0 0 0 40.96 40.96 40.96z" />
<glyph unicode="&#xe820;" glyph-name="cemetery" data-tags="cemetery" d="M512 939.52c-203.53 0-368.64-161.976-368.64-361.759v-621.281h737.28v621.281c0 199.782-164.987 361.759-368.64 361.759z" />
<glyph unicode="&#xe821;" glyph-name="chairlift" data-tags="chairlift" d="M872.428 198.758c37.663 12.329 57.938 52.367 45.548 89.723l-27.3-8.724c7.455-22.385-4.956-46.531-27.279-53.924l-717.414-242.504 9.236-26.849 717.21 242.278zM211.825 617.82c39.363 11.407 61.891 52.572 50.401 91.73-11.51 39.137-52.879 61.522-92.365 50.115-39.465-11.407-62.239-52.572-50.504-91.73 11.51-39.158 52.777-61.542 92.467-50.115zM181.371 515.359c-39.26 74.26 73.4 134.431 114.893 62.403l80.896-152.596 154.030 43.438c25.477 7.168 60.682-20.378 60.682-52.797l0.86-217.477c0.246-53.903-80.486-54.129-80.486 0.43-0.246 50.586-1.577 158.392-1.577 158.392l-160.727-47.862c-35.185-10.076-64.287 7.352-78.029 33.096l-90.542 172.974zM430.080 480.891v458.629h-40.96v-467.354zM107.397 416.236c-22.098 43.172 34.959 71.803 57.057 28.631l69.571-135.127c15.114-27.955 44.667-47.002 78.725-47.002 10.588 0 20.5 2.703 30.208 4.71l87.654 25.477c46.469 13.885 64.492-46.94 17.613-60.641l-92.201-26.583c-13.742-4.26-28.631-6.472-43.971-6.472-59.31 0-110.612 33.321-135.864 82.084l-68.792 134.922z" />
<glyph unicode="&#xe822;" glyph-name="church" data-tags="church" d="M1003.52 501.33l-471.040 222.822v92.488h61.44v40.96h-61.44v81.92h-40.96v-81.92h-61.44v-40.96h61.44v-92.488l-471.040-222.822v-32.85h143.36v-512h245.76v307.2h204.8v-307.2h245.76v512h143.36z" />
<glyph unicode="&#xe823;" glyph-name="circle" data-tags="circle" d="M1003.52 448c0-271.459-220.061-491.52-491.52-491.52s-491.52 220.061-491.52 491.52c0 271.459 220.061 491.52 491.52 491.52s491.52-220.061 491.52-491.52z" />
<glyph unicode="&#xe824;" glyph-name="city-hall" data-tags="city-hall" d="M158.577 513.536h71.373v-458.752h107.090v393.216h107.090v-393.216h107.069v393.216h107.11v-393.216h107.090v458.752h71.352c19.722 0 35.717 14.664 35.717 32.768 0 10.936-5.898 20.562-14.889 26.501l0.061 0.061-0.532 0.307c-0.307 0.205-0.635 0.369-0.922 0.553l-340.685 176.312v51.651c62.915-28.918 114.708 20.89 196.301-9.052v114.094c-81.633 29.942-133.407-19.825-196.301 9.073v7.332c0 9.073-7.967 16.384-17.838 16.384s-17.818-7.311-17.818-16.384v-173.097l-340.685-176.271c-0.307-0.184-0.614-0.389-0.922-0.553l-0.512-0.348v-0.061c-8.95-5.939-14.828-15.585-14.828-26.501-0.020-18.104 15.974-32.768 35.676-32.768zM194.253 21.996l-71.373-65.516h749.609l-71.414 65.516z" />
<glyph unicode="&#xe825;" glyph-name="climbing" data-tags="climbing" d="M131.727 518.656c-4.444-9.114-7.68-19.21-9.38-30.065-0.758-5.386-1.249-10.834-1.249-16.241l3.953-248.32-86.118-184.812c-2.97-5.448-5.181-11.796-6.164-18.473-4.71-30.556 16.323-58.9 47.002-63.59 23.757-3.686 46.51 8.376 57.405 28.385l94.74 202.015c1.966 4.69 3.727 9.626 4.444 15.032 0.266 2.458 0.512 5.181 0.512 7.619l-0.737 153.518 145.592-63.324 23.511-150.036c4.69-21.934 22.753-39.465 46.264-43.131 30.679-4.424 59.126 16.527 63.857 46.797 0.717 5.181 0.717 10.363 0.225 15.278l-28.692 181.125c-3.461 17.49-15.073 32.522-31.416 40.182l-130.13 57.59 82.862 143.647 41.103-51.999c4.198-4.669 9.646-8.622 15.811-11.080l156.631-45.568c20.808-4.444 42.086 6.369 50.217 26.337 9.155 22.671-1.7 48.292-24.228 57.405-0.758 0.246-1.495 0.492-2.232 0.737l-136.090 39.916-102.441 122.45c-15.34 16.261-35.881 27.832-59.617 31.56-41.574 6.144-81.039-13.558-101.827-47.063l-113.807-195.891zM581.038 162.632l-9.892-74.404-269.435-65.27 2.601-45.998h657.121c23.286 0 42.086 18.678 42.086 41.841l-0.737 882.053-90.030 20.931-51.732-231.895-86.487-36.209-76.698-213.832 72.868-163.615-20.521-62.812-169.144-50.79zM398.090 772.465c46.264 0 83.866 37.437 83.866 83.517-0.020 46.060-37.601 83.538-83.866 83.538s-83.886-37.478-83.886-83.538c-0.020-46.080 37.601-83.517 83.886-83.517zM231.199 759.398c6.431 11.325 2.703 26.112-8.909 32.522l-40.591 23.654c-11.612 6.41-26.235 2.703-32.911-8.868l-125.174-215.122c-6.431-11.325-2.724-25.866 8.888-32.522l40.837-23.429c11.366-6.636 25.989-2.703 32.645 8.643l125.215 215.122z" />
<glyph unicode="&#xe826;" glyph-name="closed-captioning" data-tags="closed-captioning" d="M319.468 488.96c-0.676 20.48-6.554 35.451-16.507 45.179-9.728 10.506-23.286 18.125-40.468 18.125-58.798 0-68.506-59.781-68.506-106.476 0-59.331 22.61-97.956 68.506-97.956 40.468 0 56.3 18.268 60.805 59.228h158.044c-13.558-122.88-109.875-163.881-218.849-163.881-127.078 0-224.973 71.475-224.973 204.534 0 134.636 94.72 207.483 224.973 207.483 105.124 0 204.616-43.356 215.695-166.236h-158.72zM821.166 488.96c-0.676 20.48-6.779 35.451-16.507 45.179-9.728 10.506-23.286 18.125-40.714 18.125-58.532 0-68.26-59.781-68.26-106.476 0-59.331 22.61-97.956 68.26-97.956 40.714 0 56.545 18.268 61.051 59.228h158.044c-13.558-122.88-109.875-163.881-219.095-163.881-127.058 0-224.727 71.475-224.727 204.534 0 134.636 94.74 207.483 224.727 207.483 105.39 0 204.616-43.356 215.941-166.236h-158.72z" />
<glyph unicode="&#xe827;" glyph-name="clothing-store" data-tags="clothing-store" d="M969.933 657.92c1.638-5.939-0.43-12.493-3.891-17.613l-110.387-164.25c-4.096-6.349-12.698-9.83-19.886-9.83-2.048 0-7.782 0.41-10.015 1.024l-88.474 21.709v-389.12c0-11.878-8.397-20.48-20.48-20.48h-430.080c-12.083 0-20.48 8.602-20.48 20.48v389.12l-79.462-21.914c-9.216-2.867-17.203 0.819-22.323 8.806l-109.568 163.84c-3.482 5.325-4.506 11.264-2.867 17.203 1.434 6.144 5.734 10.24 11.264 13.107l223.437 105.677c20.48 0 102.4 0 102.4 0 12.083 0 20.48-8.397 20.48-20.48 0-42.189 59.187-72.090 101.376-72.090s103.424 29.696 103.424 72.090c0 11.878 8.397 20.48 20.48 20.48 0 0 81.92 0 102.4 0l221.184-103.629c5.734-2.867 9.83-7.987 11.469-14.131z" />
<glyph unicode="&#xe828;" glyph-name="compass" data-tags="compass" d="M512-43.52c-271.032 0-491.52 220.508-491.52 491.52 0 271.032 220.488 491.52 491.52 491.52 271.012 0 491.52-220.488 491.52-491.52 0-271.012-220.508-491.52-491.52-491.52zM512 857.6c-225.853 0-409.6-183.747-409.6-409.6s183.747-409.6 409.6-409.6c225.853 0 409.6 183.747 409.6 409.6s-183.747 409.6-409.6 409.6zM512.922 791.040c0 0-144.282-247.214-144.282-322.56 0-7.967 0-33.096 0-40.96 0-75.325 144.712-327.68 144.712-327.68s142.008 247.112 142.008 322.437c0 7.926 0 38.441 0 46.326 0 75.346-142.438 322.437-142.438 322.437zM512 366.080c-45.24 0-81.92 36.68-81.92 81.92s36.68 81.92 81.92 81.92c45.24 0 81.92-36.68 81.92-81.92s-36.68-81.92-81.92-81.92z" />
<glyph unicode="&#xe829;" glyph-name="convenience-store" data-tags="convenience-store" d="M839.68 570.88h-5.571c-1.516 2.621-3.277 5.161-5.448 7.475l-236.421 253.297c1.044 5.059 1.679 10.301 1.679 15.708 0 39.588-29.164 71.68-65.167 71.68-13.885 0-60.6 0-74.486 0-35.983 0-65.147-32.092-65.147-71.68 0-5.407 0.655-10.65 1.679-15.708l-236.421-253.297c-2.15-2.314-3.912-4.854-5.448-7.475h-107.971v-143.36h40.96v-307.2c0-56.566 45.855-102.4 102.4-102.4h655.36c56.566 0 102.4 45.834 102.4 102.4v307.2h40.96v143.36h-143.36zM454.287 775.68c13.885 0 60.6 0 74.486 0 1.147 0 2.191 0.307 3.338 0.369l191.468-205.169h-464.118l191.488 205.169c1.126-0.061 2.191-0.369 3.338-0.369zM266.24 140.8c0-22.528-18.432-40.96-40.96-40.96s-40.96 18.432-40.96 40.96v245.76c0 22.528 18.432 40.96 40.96 40.96s40.96-18.432 40.96-40.96v-245.76zM450.56 140.8c0-22.528-18.432-40.96-40.96-40.96s-40.96 18.432-40.96 40.96v245.76c0 22.528 18.432 40.96 40.96 40.96s40.96-18.432 40.96-40.96v-245.76zM655.36 140.8c0-22.528-18.432-40.96-40.96-40.96s-40.96 18.432-40.96 40.96v245.76c0 22.528 18.432 40.96 40.96 40.96s40.96-18.432 40.96-40.96v-245.76zM839.68 140.8c0-22.528-18.432-40.96-40.96-40.96s-40.96 18.432-40.96 40.96v245.76c0 22.528 18.432 40.96 40.96 40.96s40.96-18.432 40.96-40.96v-245.76z" />
<glyph unicode="&#xe82a;" glyph-name="courthouse" data-tags="courthouse" d="M370.688 457.359l-188.498 106.291 65.516 114.893 188.539-106.23zM746.906 359.301l-318.505 179.405-32.748-57.508 318.464-179.425zM785.572 337.49l-32.85-57.467 164.25-92.447 32.85 57.405zM741.335 280.023c-2.519-4.485-9.4-5.55-15.38-2.273v0c-5.96 3.359-8.602 9.728-6.062 14.275l38.4 67.277c2.642 4.567 9.523 5.673 15.442 2.273v0c5.878-3.359 8.54-9.871 6.001-14.438l-38.4-67.113zM983.654 243.18c-6.533 3.604-13.742 5.284-20.705 5.079l-42.004-73.564c3.379-6.164 8.417-11.551 15.053-15.155 18.514-10.486 41.8-4.444 51.978 13.353l10.772 19.046c10.199 17.92 3.482 40.755-15.094 51.241zM454.472 594.452c-4.936-8.929-16.179-11.919-25.088-7.004l-164.987 93.020c-8.929 4.956-11.94 16.118-6.943 25.047v0c5.018 8.765 16.282 11.899 25.19 6.84l164.946-92.897c8.847-5.059 12.001-16.241 6.881-25.006v0zM477.594 634.839c-5.079-8.909-16.323-11.919-25.129-6.963l-165.048 93c-8.868 4.956-11.981 16.138-6.902 24.924v0c4.956 8.909 16.22 12.001 25.19 6.984l164.987-92.918c8.909-5.018 11.94-16.22 6.902-25.027v0zM338.166 390.226c-5.079-8.806-16.323-11.796-25.17-6.84l-165.11 93.020c-8.847 4.915-11.94 16.118-6.922 25.047v0c5.018 8.643 16.425 11.899 25.17 6.84l165.028-93.020c8.868-4.936 11.94-16.138 7.004-25.047v0zM361.226 430.756c-5.018-8.909-16.261-11.899-25.272-6.861l-164.987 92.918c-8.806 5.059-11.94 16.241-6.943 25.047v0c5.1 8.888 16.343 11.899 25.211 6.861l164.966-92.918c8.847-5.038 12.042-16.261 7.025-25.047v0zM84.357 265.298h290.898v-33.444h-290.898v33.444zM438.784 195.543c-1.864 11.162-11.51 19.722-23.245 19.722h-371.384c-11.715 0-21.422-8.561-23.245-19.722h-0.43v-54.764h418.734v54.764h-0.43z" />
<glyph unicode="&#xe82b;" glyph-name="cross-country-skiing" data-tags="cross-country-skiing" d="M825.303 822.886c0-41.793-33.77-75.674-75.428-75.674s-75.428 33.88-75.428 75.674c0 41.793 33.77 75.674 75.428 75.674s75.428-33.88 75.428-75.674zM271.565 95.703l-251.085 252.58 0.102-44.114 233.697-235.254c26.849-29.184 72.847 4.567 72.847 4.567l-22.057 23.695c0 0-21.729-14.295-32.973-2.13l-0.532 0.655zM20.48 570.88h266.24v-20.48h-266.24v20.48zM974.234 642.683l29.286-13.865-291.738-590.418h-32.297zM490.107 691.016l-117.412-135.946c-6.902-8.602-17.49-13.967-29.307-13.967-21.053 0-37.97 17.080-37.97 38.093 0 11.387 4.895 21.545 12.8 28.488l126.546 146.227c7.004 8.376 17.49 13.742 29.286 13.742l183.255 0.102c13.476 0 25.518-5.489 34.427-13.967l116.838-117.187 96.809 96.85c6.799 5.796 15.626 9.277 25.17 9.277 21.729 0 39.219-17.654 39.219-39.322 0-9.482-3.236-18.084-8.806-24.904l-116.736-117.965c-35.41-35.533-63.959-5.366-63.959-5.366l-71.598 72.151-111.964-129.802 102.584-102.871c0 0 21.606-20.111 9.257-60.211l-57.487-256.942c-4.567-22.344-24.289-39.096-47.78-39.096-26.931 0-48.804 21.873-48.804 48.927 0 4.26 0.43 8.376 1.577 12.308l47.227 210.883-116.511 113.521-100.25-112.046c0 0-16.261-20.111-59.269-18.555l-203.284-0.348c-22.733-0.43-43.336 15.217-48.456 38.216-6.021 26.358 10.24 52.285 36.536 58.081 4.116 0.922 8.233 1.352 12.247 1.126l174.899-0.43 258.56 300.605-67.645 0.328zM938.496 34.959c-0.061-19.804-16.466-37.519-36.147-37.519h-595.149v-20.48h595.067c33.116-0.184 60.129 25.375 60.293 58.655l-24.064-0.655z" />
<glyph unicode="&#xe82c;" glyph-name="crosshairs" data-tags="crosshairs" d="M512 939.52c-271.032 0-491.52-220.488-491.52-491.52 0-271.012 220.488-491.52 491.52-491.52 271.012 0 491.52 220.508 491.52 491.52 0 271.032-220.508 491.52-491.52 491.52zM573.44 43.52v179.2h-122.88v-179.2c-176.64 26.767-316.273 166.4-343.040 343.040h179.2v122.88h-179.2c26.767 176.64 166.4 316.273 343.040 343.040v-179.2h122.88v179.2c176.64-26.767 316.273-166.4 343.040-343.040h-179.2v-122.88h179.2c-26.767-176.64-166.4-316.273-343.040-343.040z" />
<glyph unicode="&#xe82d;" glyph-name="dentist" data-tags="dentist" d="M508.867 401.551c72.643 0 106.312-55.091 113.377-133.366 1.659-18.719-0.020-46.019-2.458-77.64-8.151-105.021-17.531-234.066 52.367-234.066 59.187 0 89.518 113.459 107.090 242.811 16.916 128.041-1.044 191.754 7.823 248.627 16.814 107.725 110.838 204.308 81.797 341.668-16.097 76.206-58.081 112.026-99.615 127.119-95.724 34.836-157.573-32.297-260.383-32.297-102.789 0-164.598 67.133-260.362 32.297-41.513-15.073-83.517-50.913-99.656-127.119-28.979-137.359 65.024-233.923 81.9-341.668 8.786-56.852-9.073-120.586 7.823-248.627 17.531-129.352 47.923-242.811 107.049-242.811 69.857 0 60.539 129.044 52.388 234.066-2.376 31.642-4.178 58.941-2.478 77.66 7.045 78.254 41.206 133.345 113.336 133.345z" />
<glyph unicode="&#xe82e;" glyph-name="department-store" data-tags="department-store" d="M696.32 734.72v62.177c0 50.811-43.192 101.663-93.983 101.663h-170.865c-50.77 0-103.793-50.852-103.793-101.663v-62.177h-108.79l-116.49-716.8h823.030l-118.333 716.8h-110.776zM389.12 796.897c0 19.026 23.347 40.223 42.353 40.223h170.865c18.985 0 32.543-21.197 32.543-40.223v-62.177h-245.76v62.177z" />
<glyph unicode="&#xe82f;" glyph-name="diving" data-tags="diving" d="M962.56-23.060c-19.722 0-38.605 4.485-55.419 12.083-17.306 8.049-36.844 12.718-57.201 12.718-20.378 0-39.711-4.69-57.221-12.718-16.794-7.598-35.615-12.083-55.419-12.083-19.722 0-38.605 4.485-55.439 12.083-17.49 8.049-36.762 12.718-57.221 12.718-20.398 0-39.895-4.69-57.221-12.718-16.773-7.598-35.656-12.083-55.378-12.083-19.784 0-38.625 4.485-55.665 12.083-17.285 8.049-36.741 12.718-56.955 12.718-20.398 0-39.936-4.69-57.18-12.718-16.835-7.598-35.697-12.083-55.337-12.083-19.722 0-38.564 4.485-55.644 12.083-17.265 8.049-36.782 12.718-56.975 12.718-20.439 0-39.936-4.69-57.221-12.718-16.835-7.598-35.901-12.083-55.644-12.083v82.964c19.722 0 38.81 4.485 55.644 12.083 17.285 7.803 36.803 12.513 57.221 12.513 20.173 0 39.69-4.71 56.975-12.513 17.080-7.598 35.922-12.083 55.644-12.083 19.64 0 38.482 4.485 55.337 12.083 17.265 7.803 36.782 12.513 57.18 12.513 20.193 0 39.67-4.71 56.955-12.513 17.039-7.598 35.881-12.083 55.665-12.083 19.722 0 38.584 4.485 55.378 12.083 17.326 7.803 36.823 12.513 57.221 12.513 20.46 0 39.711-4.71 57.221-12.513 16.835-7.598 35.717-12.083 55.439-12.083 19.804 0 38.625 4.485 55.419 12.083 17.49 7.803 36.844 12.513 57.221 12.513 20.357 0 39.895-4.71 57.201-12.513 16.814-7.598 35.697-12.083 55.419-12.083v-82.964zM316.436 383.652c41.964 0 76.042 33.976 76.042 75.817 0 41.82-34.079 75.592-76.042 75.592-41.861 0-75.94-33.772-75.94-75.592s34.079-75.817 75.94-75.817zM327.209 121.61c-11.899-20.357-38.154-27.3-58.45-15.237-20.398 11.837-27.361 38.031-15.483 58.409l176.251 302.51c6.431 11.407 15.872 20.808 27.075 27.054l226.632 136.847 153.907 261.14c14.602 25.498 47.104 34.202 72.724 19.681 25.313-14.766 34.079-47.186 19.456-72.458v0l-184.402-312.791c-6.287-11.428-15.708-20.808-27.136-27.054l-267.448-165.704-123.126-212.398z" />
<glyph unicode="&#xe830;" glyph-name="doctor" data-tags="doctor" d="M879.084 693.76h-100.844v107.028c0 76.513-60.375 138.732-137.093 138.732h-258.273c-76.759 0-137.114-62.218-137.114-138.732v-107.028h-100.864c-68.731 0-124.416-53.064-124.416-121.59v-471.183c0-68.506 55.685-124.027 124.416-124.027h734.188c68.71 0 124.436 55.521 124.436 124.047v471.163c0 68.526-55.726 121.59-124.436 121.59zM327.68 800.788c0 28.652 26.46 56.812 55.194 56.812h258.273c28.652 0 55.173-28.16 55.173-56.812v-107.028h-368.64v107.028zM737.28 243.2h-143.36v-143.36h-163.84v143.36h-143.36v163.84h143.36v143.36h163.84v-143.36h143.36v-163.84z" />
<glyph unicode="&#xe831;" glyph-name="electrician" data-tags="electrician" d="M839.68 673.28h-102.4v226.939c0 21.709-18.33 39.301-40.96 39.301s-40.96-17.592-40.96-39.301v-226.939h-327.68v226.939c0 21.709-18.33 39.301-40.98 39.301-22.63 0-40.94-17.592-40.94-39.301v-226.939h-102.4c-11.325 0-20.48-17.797-20.48-28.652v-98.324c0-117.944 204.8-254.894 204.8-444.334v-63.57h81.92v-81.92h163.84v81.92h81.92v63.57c0 189.44 204.8 326.41 204.8 444.334v98.324c0 10.854-9.155 28.652-20.48 28.652zM469.135 337.654c1.331 4.301-1.372 7.946-6.062 7.946h-79.565c-4.71 0-6.042 2.662-3.052 6.124 0 0 163.942 208.056 167.137 212.070 2.417 3.809 5.079 2.478 4.239-1.905-1.27-5.55-36.27-147.497-36.27-147.497-1.7-4.178 0.758-7.352 5.407-7.352h79.606c4.69 0 6.185-3.154 3.318-6.717 0 0-164.188-213.033-167.137-216.596-2.97-3.564-5.714-2.478-4.219 3.584 1.495 6.083 36.598 150.344 36.598 150.344z" />
<glyph unicode="&#xe832;" glyph-name="electronics-store" data-tags="electronics-store" d="M506.225-43.52c-236.339 0-428.626 192.287-428.626 428.646 0 151.265 77.332 288.42 206.889 366.858 27.771 16.814 63.857 7.926 80.65-19.804s7.905-63.836-19.804-80.65c-94.106-56.975-150.282-156.59-150.282-266.404 0-171.602 139.592-311.194 311.194-311.194s311.173 139.592 311.173 311.194c0 111.616-60.293 215.347-157.43 270.643-28.201 16.056-38.011 51.896-21.975 80.077 16.056 28.16 51.896 37.99 80.077 21.955 133.734-76.145 216.781-218.972 216.781-372.695-0.020-236.339-192.266-428.626-428.646-428.626zM501.76 390.984c-32.42 0-71.68 26.296-71.68 58.716v422.769c0 32.42 39.26 58.716 71.68 58.716s71.68-26.296 71.68-58.716v-422.769c0-32.42-39.26-58.716-71.68-58.716z" />
<glyph unicode="&#xe833;" glyph-name="embassy" data-tags="embassy" d="M234.742 939.52c-27.914 0-50.422-23.081-50.422-51.732v-879.534c0-25.846 25.211-51.753 50.422-51.753 25.19 0 50.401 25.928 50.401 51.753v530.309c17.224 7.516 33.976 12.943 50.422 12.943 100.823 0 249.549-129.372 352.891-129.372 44.052 0 107.131 17.838 151.224 51.753v362.168c-50.012-38.482-100.68-77.619-151.224-77.619-100.823 0-251.72 129.352-352.891 129.352-16.998 0-33.587-3.113-50.422-6.472v6.472c0 28.652-22.508 51.732-50.401 51.732z" />
<glyph unicode="&#xe834;" glyph-name="expand" data-tags="expand" d="M40.96 637.276v281.764h292.844l107.766-81.92h-179.589l188.58-199.844-116.756-107.356-190.444 179.18v-179.589zM983.040 268.759v-291.799h-292.844l-107.766 81.92h179.589l-188.58 204.861 116.756 109.855 190.444-176.66v179.589z" />
<glyph unicode="&#xe835;" glyph-name="female" data-tags="female" d="M552.96 865.28c0-46.657-37.823-84.48-84.48-84.48s-84.48 37.823-84.48 84.48c0 46.657 37.823 84.48 84.48 84.48s84.48-37.823 84.48-84.48zM674.058 304.64l-121.016 332.534c-0.451 1.044-0.696 2.212-0.696 3.42 0 4.854 4.076 8.786 9.155 8.786 4.321 0 7.946-2.888 8.909-6.738l82.268-215.122c5.468-12.308 27.955-20.48 42.742-20.48 19.763 0 21.811 38.81 21.381 40.96l-82.268 212.111c-7.148 47.534-55.153 95.089-109.937 95.089h-107.213c-54.784 0-106.353-47.555-113.5-95.089l-78.582-212.111c-1.782-4.076 0-40.96 21.361-40.96 16.609 0 38.707 5.796 42.742 20.48l79.36 216.044c1.27 3.4 4.669 5.816 8.622 5.816 5.059 0 9.134-3.932 9.134-8.765 0-1.106-0.184-2.171-0.573-3.133l-117.903-332.841c-0.225-0.983 0-19.476 0-20.48 0-7.086 17.101-20.48 24.535-20.48h76.063v-268.186c0-21.299 18.76-39.014 40.96-39.014s40.96 17.736 40.96 39.014v268.37c0 5.796 40.96 5.612 40.96-0.184v-266.24c0-21.299 18.78-40.96 40.96-40.96 22.241 0 40.96 19.681 40.96 40.96v266.24h79.237c7.414 0 21.381 13.394 21.381 20.48 0 1.638 0.594 19.067 0 20.48z" />
<glyph unicode="&#xe836;" glyph-name="finance" data-tags="finance" d="M880.64 714.24h-880.64v-532.48h1024v532.48h-143.36zM983.040 319.57c-47.677-13.169-83.681-49.132-96.85-96.85h-748.38c-13.189 47.677-49.152 83.681-96.85 96.85v256.86c47.698 13.189 83.661 49.152 96.85 96.85h748.851c13.763-46.223 50.156-82.616 96.379-96.379v-257.331zM555.336 405.914c-4.71 2.867-2.376 5.509-22.856 7.946v-59.331c0 0.573 8.847 1.27 11.223 2.089 15.196 5.325 22.815 15.258 22.815 29.716 0 8.376-3.748 14.971-11.182 19.579zM463.155 502.723c0-9.114 4.157-15.974 12.431-20.48 3.174-1.782 8.52-3.768 15.913-5.919v56.136c-6.021-1.413-11.305-3.543-15.749-6.451-8.397-5.571-12.595-13.353-12.595-23.286zM512 652.8c-101.806 0-184.32-91.709-184.32-204.8 0-113.070 82.514-204.8 184.32-204.8s184.32 91.73 184.32 204.8c0 113.091-82.514 204.8-184.32 204.8zM590.93 332.206c-13.906-11.878-37.97-19.149-58.45-21.893v-26.153h-40.96v26.624c-21.381 2.908-39.096 6.144-53.002 17.101-19.292 15.196-28.918 38.195-28.918 58.675h50.954c1.659 0 4.895-16.404 9.728-22.2 5.018-5.96 12.145-6.656 21.238-9.175v69.734c-24.924 5.755-42.291 11.96-51.937 18.637-17.224 11.776-25.825 30.228-25.825 55.296 0 22.876 8.417 41.882 25.272 57.016 12.861 11.571 30.392 18.678 52.49 21.422v34.55h40.96v-35.635c20.48-3.052 34.324-12.554 47.104-22.036 19.231-14.275 32.768-24.248 33.69-65.208h-51.323c-0.963 20.48-11.244 29.327-24.003 35.799-0.676 0.328-5.468 3.953-5.468 4.239v-64.369l18.473-3.564c19.64-4.628 37.806-10.813 47.596-18.534 15.237-12.042 21.135-29.43 21.135-52.163 0.041-23.347-10.732-42.721-28.754-58.163z" />
<glyph unicode="&#xe837;" glyph-name="fire-station" data-tags="fire-station" d="M518.861 462.397c0 0-99.103-79.729-99.103-144.179 0-28.856 42.476-57.692 99.103-57.692 56.586 0 99.062 28.836 99.062 57.692 0 66.765-99.062 144.179-99.062 144.179zM880.148 608.133c5.734 70.205 26.092 134.656 61.932 193.72l-137.605 137.667c-43.459-37.437-92.979-58.163-149.094-61.829-51.405-4.649-100.127 5.12-145.94 29.389-47.145-23.47-95.683-33.28-146.289-29.389-52.326 4.69-99.574 23.245-141.865 56.136l-137.994-137.605c33.935-59.924 52.838-122.614 56.545-188.088 1.761-30.147-6.84-71.619-26.132-125.276-10.097-29.737-17.715-55.521-22.938-77.087-4.833-21.402-7.844-38.81-8.827-51.835-0.717-57.139 15.319-108.769 48.189-154.624 25.682-33.485 68.035-70.472 126.853-110.899 64.369-32.768 114.156-54.026 149.033-63.119 9.974-4.669 19.784-9.134 28.918-13.435 9.114-4.342 18.862-8.602 29.020-13.251 21.934-13.128 37.335-27.382 45.486-42.107 9.933 15.913 25.682 29.819 46.653 42.107 14.787 6.451 27.259 12.063 37.315 16.957 10.015 4.444 17.51 7.741 21.832 9.748 7.455 3.707 17.265 7.946 29.061 12.616 11.899 4.69 26.665 10.424 44.237 16.814 33.976 12.022 58.757 23.409 74.445 33.69 57.057 40.428 98.775 76.8 125.297 109.363 34.058 46.039 50.586 97.874 49.828 156.16-2.028 26.092-13.066 67.85-33.116 124.723-19.108 55.398-27.587 98.406-24.842 129.454zM518.861 202.854c-125.071 0-240.64 103.301-240.64 230.707 0 86.528 66.15 168.264 84.931 201.871l56.607-86.528 99.103 144.179 99.062-144.179 56.689 86.528c18.719-33.608 84.931-115.343 84.931-201.871 0-127.406-115.589-230.707-240.681-230.707z" />
<glyph unicode="&#xe838;" glyph-name="fish-cleaning" data-tags="fish-cleaning" d="M49.664 271.585v0c-0.676 0.758-0.922 1.454-0.922 2.437 0 1.987 1.393 3.666 3.461 3.666l99.574-0.266c5.059 0 8.97 4.157 8.97 9.298 0 3.912-1.843 6.615-5.53 8.806l-90.399 45.711c-1.597 1.208-2.765 3.154-2.765 5.386 0 1.72 0.696 3.441 1.618 4.424v0c0 0 237.24 222.945 762.020 6.799l144.2 74.834c1.372 0.758 3.011 1.249 4.833 1.249 5.96 0 11.059-5.407 11.059-11.756 0-2.437-0.696-4.403-1.638-6.083l-85.074-112.456 85.074-112.497c0.942-1.7 1.638-3.891 1.638-6.083 0-6.595-5.1-11.981-11.059-11.981-1.823 0-3.461 0.492-4.833 1.208l-144.2 75.059c0.020-0.020-501.76-212.214-776.028 22.241zM209.736 317.522c19.087 0 34.161 16.179 34.161 36.291 0 20.46-15.073 36.557-34.161 36.557-18.842 0-33.915-16.097-33.915-36.557 0-20.111 15.073-36.291 33.915-36.291zM655.36 693.76v-122.88h290.202c31.949 0 57.958 27.464 57.958 61.44 0 34.243-26.010 61.44-57.958 61.44h-290.202zM120.75 605.286l26.46 11.735 16.548-30.085 26.685 20.541 19.087-28.365 25.539 22.016 20.705-26.911 24.146 23.47 21.955-25.641 23.245 24.678 23.224-24.678 23.224 24.678 22.999-24.678 23.245 24.678 23.142-24.678 23.245 24.678 23.224-24.678 22.999 24.678 23.245-24.678 23.245 24.678 23.224-24.678 27.177 24.678 27.566-24.699v121.733h-614.4v-0.737c20.48-35.43 61.87-65.516 100.27-87.736z" />
<glyph unicode="&#xe839;" glyph-name="fishing-pier" data-tags="fishing-pier" d="M513.556 805.253c36.311 0 65.597 29.204 65.597 65.413 0 35.942-29.286 65.393-65.597 65.393s-65.597-29.45-65.597-65.393c0-36.188 29.286-65.413 65.597-65.413zM924.959 55.521c-18.084 8.397-38.441 13.292-59.761 13.292-21.074 0-41.431-4.895-59.761-13.292-17.551-7.721-37.233-12.39-57.836-12.39s-40.53 4.69-58.122 12.39c-18.043 8.397-38.4 13.292-59.72 13.292s-41.718-4.895-59.761-13.292c-17.797-7.721-37.478-12.39-58.081-12.39-20.623 0-40.305 4.69-58.102 12.39-18.043 8.397-38.42 13.292-59.74 13.292-21.074 0-41.452-4.895-59.74-13.292-17.572-7.721-37.192-12.39-57.692-12.39-20.603 0-40.53 4.69-58.102 12.39-18.043 8.397-38.42 13.292-59.74 13.292s-41.697-4.895-59.74-13.292c-17.797-7.721-37.478-12.411-58.102-12.411v-86.63c20.623 0 40.305 4.444 58.102 12.39 18.043 8.397 38.42 13.292 59.74 13.292s41.697-4.895 59.74-13.292c17.551-7.946 37.499-12.39 58.102-12.39 20.5 0 40.12 4.444 57.692 12.39 18.289 8.397 38.646 13.292 59.74 13.292 21.32 0 41.697-4.895 59.74-13.292 17.797-7.946 37.478-12.39 58.102-12.39 20.603 0 40.284 4.444 58.081 12.39 18.043 8.397 38.441 13.292 59.761 13.292s41.677-4.895 59.72-13.292c17.592-7.946 37.519-12.39 58.122-12.39s40.284 4.444 57.836 12.39c18.33 8.397 38.687 13.292 59.761 13.292 21.32 0 41.677-4.895 59.761-13.292 17.756-7.946 37.478-12.39 58.081-12.39v86.63c-20.603 0-40.325 4.69-58.081 12.411zM930.365 938.639c-4.71 1.864-11.837 0.717-15.606-2.806l-239.964-241.582c-3.748 1.638-8.724-0.492-13.189-0.492 0 0-70.287 0-90.644 0-15.483 20.48-97.464 100.475-97.464 100.475-4.198 4.219-9.605 8.090-14.991 9.482-18.739 16.364-47.084 16.896-65.126-1.085l-140.247-140.698c-5.386-5.366-7.373-12.452-7.373-20.398v-91.136h-204.8v-40.96h204.8v-235.991c0-29.204 21.873-52.797 51.057-52.797 29 0 51.343 23.593 51.343 52.797v235.991h143.36v-307.2h-450.56v-61.44h491.52v368.64h61.44v40.96h-245.76v16.876l132.608 131.707 54.129-55.521c5.816-6.062 14.254-11.141 22.938-11.141h103.752c17.859 0 34.734 2.724 34.734 20.48 0 4.219 1.352 16.732 0 20.48 56.689 56.525 204.8 195.523 225.28 223.785 0-55.828 0-756.265 0-756.265h20.48v786.166c0 5.14-7.045 9.564-11.715 11.674z" />
<glyph unicode="&#xe83a;" glyph-name="fishing" data-tags="fishing" d="M598.241 283.935c22.282 0 40.141 17.756 40.141 39.711 0 21.811-17.859 39.711-40.141 39.711s-40.387-17.9-40.387-39.711c0-21.955 18.104-39.711 40.387-39.711zM1003.52-2.355c-245.76-3.523-491.295 41.492-682.23 192.778v0c-1.229 1.065-3.256 2.519-3.256 4.198 0 3.625 2.15 6.39 5.591 6.39l187.843-0.246c9.052 0 16.425 7.352 16.425 16.404 0 6.758-3.236 11.489-10.568 15.094l-170.23 80.138c-3.154 1.946-5.407 5.304-5.407 9.441 0 2.888 4.321 5.652 6.287 7.721v0c0 0 204.984 180.634 655.544 176.681v-508.6zM906.322 898.54c-147.333-1.638-291.656-63.611-453.509-194.519-6.001 1.638-19.333 5.12-19.333 5.12-25.702 0-46.653-20.5-46.653-45.793 0 0 1.823-8.561 2.929-13.824-4.854-4.588-130.765-120.996-130.765-120.996l-111.227-103.363c-10.465-9.4-23.921-14.090-38.072-13.496-14.049 0.696-26.952 6.738-36.332 16.855-9.114 10.035-13.599 22.487-13.599 35 0 14.131 5.755 28.242 17.060 38.4 0 0 8.397 4.608 14.766 8.192 1.352-9.38 5.263-38.093 5.263-38.093l90.706 113.93-100.065-33.628c-26.378-8.95-37.212-22.057-37.622-22.589-36.68-32.625-39.547-90.071-5.652-127.017 34.099-37.048 92.324-39.69 129.823-6.124l0.963 1.208 105.452 98.939c0 0 130.109 121.426 134.41 125.44 6.246-1.659 18.616-4.731 18.616-4.731 25.58 0 46.387 20.562 46.387 45.937 0 0-1.249 6.697-2.212 11.53 156.59 126.976 293.54 187.208 430.633 188.764 28.16 0.307 50.668-3.379 87.634-11.162l7.598-1.679v36.168l-4.895 1.024c-38.195 8.028-63.263 10.854-92.303 10.506z" />
<glyph unicode="&#xe83b;" glyph-name="florist" data-tags="florist" d="M523.346 219.197c73.748-344.289 489.861-62.444 76.595 177.377 455.475-264.356 456.561 366.92 0.922 102.769 455.639 264.131-88.412 579.891-88.515 51.384 0.102 528.507-544.031 212.992-88.617-51.384-455.414 264.397-455.946-366.899-0.389-102.728-413.491-239.698 1.679-521.871 75.448-176.886l24.556-0.532zM457.544 447.939c0 30.433 24.535 55.050 54.764 55.050 30.249 0 54.743-24.617 54.743-55.050 0-30.392-24.494-55.050-54.743-55.050-30.208 0.020-54.764 24.658-54.764 55.050z" />
<glyph unicode="&#xe83c;" glyph-name="food" data-tags="food" d="M1001.349 649.646l-80.589-631.726h-272.2l-80.261 634.88h332.308l65.679 226.857 37.233-11.223-63.017-218.317 60.846-0.471zM529.818 284.16c0 0 10.179 81.92-130.97 81.92h-224.788c-140.943 0-130.97-81.92-130.97-81.92h486.728zM43.090 99.84c0 0-9.974-81.92 130.97-81.92h224.809c141.148 0 130.97 81.92 130.97 81.92h-486.748zM508.703 140.8c23.101 0 41.759 22.815 41.759 51.18 0 28.529-18.657 51.22-41.759 51.22h-446.444c-22.999 0-41.779-22.692-41.779-51.22 0-28.365 18.78-51.18 41.779-51.18h446.444z" />
<glyph unicode="&#xe83d;" glyph-name="fullscreen" data-tags="fullscreen" d="M40.96 637.276v281.764h292.844l107.766-81.92h-179.589l188.58-199.844-116.756-107.356-190.444 179.18v-179.589zM691.241 919.040h291.799v-282.808l-81.92-107.745v179.569l-204.861-188.58-109.855 111.739 176.66 185.426h-179.589zM983.040 268.759v-291.799h-292.844l-107.766 81.92h179.589l-188.58 204.861 116.756 109.855 190.444-176.66v179.589zM332.759-23.040h-291.799v292.844l81.92 107.766v-179.589l204.861 188.58 109.855-116.756-176.66-190.444h179.589z" />
<glyph unicode="&#xe83e;" glyph-name="funeral-home" data-tags="funeral-home" d="M516.956 917.217l-496.476-428.257h122.88v-512h737.28v512h122.88l-486.564 428.257zM696.32 345.6h-143.36v-247.562l-0.942 1.802h-97.792l-3.666-1.802v247.562h-122.88v81.92h122.88v184.32h102.4v-184.32h143.36v-81.92z" />
<glyph unicode="&#xe83f;" glyph-name="furniture-store" data-tags="furniture-store" d="M952.218 734.72h-880.108c-28.303 0-51.466-25.743-51.466-51.2s23.163-51.18 51.466-51.18h12.431v-102.4h856.494v102.4h11.182c28.324 0 51.466 25.723 51.466 51.18s-23.142 51.2-51.466 51.2zM512.164 580.71c-14.213 0-25.723 11.858-25.723 26.46s11.51 26.46 25.723 26.46c14.234 0 25.723-11.858 25.723-26.46s-11.489-26.46-25.723-26.46zM84.541 325.161h856.494v163.799h-856.494v-163.799zM512.164 435.22c14.234 0 25.723-11.837 25.723-26.44 0-14.623-11.489-26.46-25.723-26.46-14.213 0-25.723 11.837-25.723 26.46-0.020 14.602 11.51 26.44 25.723 26.44zM84.541 183.91v-119.071c0-14.541 1.823-26.46 15.974-26.46h102.892c14.152 0 20.562 11.919 20.562 26.46v75.981h577.638v-75.981c0-14.541 5.161-26.46 19.292-26.46h102.912c14.111 0 17.203 11.919 17.203 26.46v219.32h-856.474v-100.25zM512.164 236.81c14.234 0 25.723-11.858 25.723-26.44 0-14.643-11.489-26.44-25.723-26.44-14.213 0-25.723 11.796-25.723 26.44-0.020 14.561 11.51 26.44 25.723 26.44z" />
<glyph unicode="&#xe840;" glyph-name="gas-station" data-tags="gas-station" d="M923.689 753.562c11.244 11.244 27.075 23.47 43.233 38.216l14.93 12.513-40.694 45.67-13.292-12.431c-56.238-51.098-90.071-81.981-106.598-145.285-16.404-62.935-17.060-126.648-15.34-186.204 1.802-61.399 4.116-101.908 21.279-147.087l6.472-16.65c16.466-41.431 41.39-104.018 41.39-184.525 0-97.26-39.404-146.596-117.105-146.596-70.697 0-108.831 47.186-113.295 140.411-2.028 41.308 9.564 92.303 21.75 146.186 10.301 45.486 20.91 92.549 26.132 142.5 5.775 55.071-1.454 94.433-22.61 118.067-27.156 30.331-68.956 33.014-105.779 33.014h-11.203v283.873c0 24.576-17.838 43.807-42.271 43.807h-422.728c-24.392 0-47.002-19.231-47.002-43.807v-898.273h512v552.96h11.223c25.19 0 51.282-2.826 60.15-12.718 4.751-5.325 12.042-22.569 7.229-69.079-4.854-46.367-15.135-92.221-25.047-135.905-13.128-58.143-25.58-113.439-23.122-163.287 6.042-126.546 69.714-199.27 174.572-199.27 111.759 0 178.483 77.783 178.483 208.241 0 92.344-28.57 164.291-45.711 207.401l-6.185 15.708c-12.329 32.543-15.094 62.71-16.794 115.343 19.722 0.451 43.602 0.922 54.333 0.922 24.556 0 36.905 14.397 42.168 39.342 3.072 14.541-1.679 33.608-1.679 68.219v9.175c-0.020 91.484-14.008 117.617-38.892 139.551zM491.52 570.88h-389.12v266.24h389.12v-266.24zM901.12 604.754c0-17.879 4.71-34.98 4.116-45.855-12.247-0.184-26.337-0.512-40.673-0.84 0.532 39.506 4.915 79.729 15.012 118.456 2.744 10.322 1.925 19.415 6.062 27.894 10.916-10.506 15.483-26.255 15.483-90.44v-9.216z" />
<glyph unicode="&#xe841;" glyph-name="general-contractor" data-tags="general-contractor" d="M726.712 652.104c-5.079 0-9.912 3.42-9.912 8.417v126.566c0 4.997-2.744 9.073-7.844 9.073h-393.933c-5.1 0-7.823-4.076-7.823-9.073v-126.566c0-4.997-5.509-7.721-10.629-7.721h-266.895c-5.038 0-9.196-5.468-9.196-10.404v-140.698c0-4.956 4.157-12.739 9.196-12.739h429.793c5.1 0 11.571 7.782 11.571 12.739v30.003c0 4.997 1.884 18.698 6.963 18.698h68.014c5.079 0 6.943-13.701 6.943-18.698v-30.003c0-4.956 6.472-12.739 11.53-12.739h429.773c5.12 0 9.257 7.782 9.257 12.739v140.698c0 4.956-4.137 10.404-9.236 10.404h-266.875l-0.696-0.696zM370.545 652.8c-5.079 0-1.905 2.724-1.905 7.7v71.946c0 5.018-3.174 2.273 1.905 2.273h282.911c5.079 0 1.905 2.744 1.905-2.273v-71.946c0-4.977 3.174-7.7-1.905-7.7h-282.911zM554.086 351.498c0-4.956-2.99-5.898-8.069-5.898h-68.014c-5.079 0-6.963-2.191-6.963 2.765v101.13c0 4.956-6.472 18.985-11.551 18.985h-429.814c-5.038 0-9.196-14.029-9.196-18.985v-299.602c0-4.977 4.157-9.093 9.196-9.093h964.608c5.1 0 9.236 4.116 9.236 9.073v299.622c0 4.956-4.137 18.985-9.236 18.985h-429.793c-5.059 0-11.53-14.029-11.53-18.985v-101.13l1.126 3.133z" />
<glyph unicode="&#xe842;" glyph-name="golf" data-tags="golf" d="M408.003 774.124c-40.346 0-73.011-32.276-73.011-72.090 0-40.018 32.666-72.274 73.011-72.274 40.141 0 72.806 32.276 72.806 72.274 0 39.813-32.645 72.090-72.806 72.090zM777.687 631.521c-2.621 15.483-15.442 24.33-16.077 24.986l-428.585 283.013-39.752-57.713c-7.393-11.51-4.219-26.522 7.107-34.058 11.469-7.516 26.481-4.403 33.976 7.086l23.163 33.382 348.058-230.175-285.204-51.528c-20.050-3.318-34.632-23.654-30.228-43.336l61.993-240.579-200.561-301.588c-12.022-20.562-4.751-47.104 15.995-58.798 20.931-11.94 47.596-4.669 59.494 15.913 0 0 209.326 315.494 210.207 317.501 0 0 10.813-43.786 10.813-44.012l-31.56-236.769c-3.953-23.45 12.145-45.548 35.738-49.521 23.818-3.994 46.326 11.94 50.319 35.369l32.379 243.466c0.901 6.205-0.205 19.886-1.741 25.866l-71.455 284.979 186.143 33.608c19.845 3.543 33.321 22.774 29.778 42.906z" />
<glyph unicode="&#xe843;" glyph-name="grocery-or-supermarket" data-tags="grocery-or-supermarket" d="M983.040 99.84c0-45.243-36.677-81.92-81.92-81.92s-81.92 36.677-81.92 81.92c0 45.243 36.677 81.92 81.92 81.92s81.92-36.677 81.92-81.92zM389.12 99.84c0-45.243-36.677-81.92-81.92-81.92s-81.92 36.677-81.92 81.92c0 45.243 36.677 81.92 81.92 81.92s81.92-36.677 81.92-81.92zM962.56 284.16h-639.57l13.66 22.159c5.857 9.503 7.578 20.992 4.772 31.805l-13.332 51.323 593.572 30.843c22.508 1.147 40.899 20.541 40.899 43.069v271.36c0 22.528-18.432 40.96-40.96 40.96h-693.883l-8.008 30.781c-4.69 18.063-20.992 30.659-39.649 30.659h-139.1c-22.61 0-40.96-18.35-40.96-40.96s18.35-40.96 40.96-40.96h107.438l109.363-420.762-43.008-69.734c-7.782-12.636-8.131-28.508-0.881-41.452 7.209-12.964 20.89-21.012 35.738-21.012h712.95c22.61 0 40.96 18.35 40.96 40.96s-18.35 40.96-40.96 40.96z" />
<glyph unicode="&#xe844;" glyph-name="gym" data-tags="gym" d="M367.862 40.98c7.66-8.253 7.209-21.32-1.024-29l-44.483-41.595c-8.233-7.68-21.238-7.229-28.897 1.044l-259.052 279.183c-7.66 8.253-7.188 21.299 1.044 29l44.544 41.533c8.233 7.7 21.238 7.229 28.897-1.044l258.97-279.122zM698.409 566.292c7.66-8.253 7.188-21.32-1.044-29l-279.962-261.53c-8.233-7.68-21.238-7.229-28.897 1.044l-66.826 72.11c-7.66 8.253-7.188 21.32 1.044 29l279.9 261.53c8.212 7.68 21.217 7.229 28.877-1.044l66.908-72.11zM463.114 130.007c7.66-8.253 7.188-21.299-1.044-29l-44.544-41.574c-8.233-7.7-21.238-7.229-28.897 1.044l-258.908 279.183c-7.66 8.253-7.209 21.32 1.024 29l44.462 41.554c8.233 7.68 21.238 7.229 28.897-1.044l259.011-279.163zM894.484 556.278c7.66-8.253 7.188-21.32-1.065-29l-44.524-41.574c-8.233-7.68-21.238-7.229-28.918 1.024l-258.949 279.122c-7.68 8.253-7.209 21.299 1.024 29l44.646 41.677c8.212 7.68 21.217 7.229 28.877-1.044l258.908-279.204zM989.594 645.161c7.66-8.253 7.188-21.32-1.044-29.020l-44.442-41.554c-8.212-7.7-21.217-7.229-28.877 1.024l-258.908 279.245c-7.66 8.253-7.209 21.32 1.024 29.020l44.483 41.636c8.212 7.7 21.197 7.25 28.856-1.024l258.908-279.327z" />
<glyph unicode="&#xe845;" glyph-name="hair-care" data-tags="hair-care" d="M864.932 441.651c7.107 8.745 21.668 18.801 32.338 22.323l87.941 35.901c10.076 5.059 18.309 18.412 18.309 29.655v250.86c0 11.264-8.622 23.757-19.149 27.75 0 0-183.972 69.939-307.22 69.939-114.688 0-273.244-60.477-273.244-60.477-10.527-4.014-28.283-8.417-39.465-9.81l-323.625-34.775c-11.182-1.372-20.337-11.715-20.337-22.979v-170.271c0-11.264 9.052-22.18 20.132-24.248l323.482-52.204c11.1-1.843 28.774-6.758 39.24-10.916l221.532-56.668c11.121-1.679 23.265-11.756 26.931-22.426l130.232-376.033c3.686-10.67 15.442-16.425 26.112-12.841l137.687 46.305c10.67 3.584 16.404 15.217 12.718 25.887l-90.399 260.772c-3.686 10.67-6.799 19.988-6.943 20.746 0 0 0 0-0.164 0.778-10.834 44.524 3.891 62.73 3.891 62.73zM707.768 577.004c-51.405 0-92.918 40.96-92.918 91.443 0 50.504 41.513 91.443 92.918 91.443 51.241 0 92.877-40.96 92.877-91.443s-41.636-91.443-92.877-91.443z" />
<glyph unicode="&#xe846;" glyph-name="hang-gliding" data-tags="hang-gliding" d="M590.93 371.569c26.563-8.991 55.439 4.506 64.717 30.454 9.236 25.887-4.854 54.026-31.437 63.037-26.604 9.011-55.48-4.731-64.717-30.618-9.032-25.784 4.854-54.129 31.437-62.874zM1007.657 694.231c0 0-171.95 20.152-529.060 20.152-263.414 0-478.597-20.152-478.597-20.152s89.231-38.277 73.748-156.938c0 0 128.041 14.868 181.678-91.955l240.497 71.045-15.729-156.303-101.724-24.31c-9.011-2.028-16.63-6.308-22.856-11.694l-223.171-209.859c-13.169-12.145-13.394-32.645-0.676-45.22 12.472-12.861 33.505-13.312 46.449-1.147l167.916 157.573 204.329 48.64 34.202 8.561 31.437-34.918c4.854-5.161 11.776-8.315 19.19-8.315l110.715-0.43c13.885 0 25.416 11.018 25.416 24.76v0c0 11.94-8.54 21.156-19.866 23.88l-82.514 279.777 343.695 101.417c16.425 7.004 15.032 23.306-5.079 25.436zM726.835 288.727c-25.19 0-67.277 0.225-79.974 0.225-12.022 13.271-59.658 65.741-59.658 65.741-0.676 0.901-1.843 1.126-2.54 1.802-12.022 13.722-31.191 20.91-50.36 16.445l-29.839-7.229 15.954 157.88 125.952 37.13 80.466-271.995z" />
<glyph unicode="&#xe847;" glyph-name="hardware-store" data-tags="hardware-store" d="M257.044-53.453c-6.963-12.206-26.788-14.131-44.278-4.096l-109.486 62.321c-17.408 9.933-25.907 27.894-18.924 40.079l465.654 738.161c66.97 108.257-167.117 98.714-224.584 66.847 43.459 77.926 181.965 103.649 271.79 110.141l26.132-1.7c50.77-25.293 123.576-63.242 171.561-95.068 35.246-55.357 72.417-84.5 125.051-84.357 68.69-52.634-38.605-196.219-106.107-129.72 0.369 32.85-94.945 117.842-161.71 47.821l-395.1-750.428z" />
<glyph unicode="&#xe848;" glyph-name="health" data-tags="health" d="M1003.52 611.84c0 11.264-9.216 20.48-20.48 20.48h-266.24c-11.264 0-20.48 9.216-20.48 20.48v266.24c0 11.264-9.216 20.48-20.48 20.48h-327.68c-11.264 0-20.48-9.216-20.48-20.48v-266.24c0-11.264-9.216-20.48-20.48-20.48h-266.24c-11.264 0-20.48-9.216-20.48-20.48v-327.68c0-11.264 9.216-20.48 20.48-20.48h266.24c11.264 0 20.48-9.216 20.48-20.48v-266.24c0-11.264 9.216-20.48 20.48-20.48h327.68c11.264 0 20.48 9.216 20.48 20.48v266.24c0 11.264 9.216 20.48 20.48 20.48h266.24c11.264 0 20.48 9.216 20.48 20.48v327.68z" />
<glyph unicode="&#xe849;" glyph-name="hindu-temple" data-tags="hindu-temple" d="M563.384 763.822c12.39-11.346 24.125-22.057 32.932-35.512l4.895-7.475 8.090 3.85c22.487 10.752 37.827 27.955 52.654 44.585 11.182 12.534 21.75 24.392 35 33.3l8.233 5.55-5.304 8.417c-23.081 36.618-53.187 67.092-89.457 90.604l-7.598 4.936-5.816-6.963c-22.815-27.341-48.067-52.9-75.039-75.96l-5.919-5.079 3.318-7.066c10.65-22.671 27.607-38.175 44.012-53.187zM695.091 608.85c76.984 0 140.022 31.457 177.5 88.596l4.465 6.799-5.591 5.898c-6.513 6.84-12.739 13.988-18.964 21.135-18.575 21.32-37.806 43.356-64.881 57.979l-9.441 5.1-4.649-9.708c-31.662-65.946-92.959-79.79-138.793-79.79-80.343 0-176.906 44.831-219.832 102.093l-33.792 45.076 15.79-54.088c29.348-100.741 168.714-189.092 298.189-189.092zM429.425 432.046c31.99 60.867 33.321 132.137 3.379 196.751-29.532 63.775-84.193 108.728-146.186 120.32-13.128 2.458-26.071 3.666-38.482 3.666-75.284 0-124.559-43.95-172.196-86.426-17.347-15.462-33.731-30.167-51.22-42.639l-12.227-8.929 12.575-8.622c4.014-2.601 14.111-17.94 22.241-29.614 25.805-37.069 47.309-67.113 70.164-67.113 0 0 0.020 0 0.020 0 8.049 0 15.565 9.544 41.759 38.994 11.039 12.39 23.532 28.14 30.228 33.444 29.942 23.777 70.984 56.34 115.814 56.34 6.042 0 12.124-0.594 18.043-1.782 20.746-4.157 33.28-13.763 38.298-29.389 10.281-32.010-13.332-81.080-33.587-102.748-10.22-10.957-21.402-18.842-33.26-27.197-16.998-11.981-34.57-24.392-49.091-46.203l-4.71-7.086 6.124-5.939c8.847-8.561 17.633-17.162 26.419-25.764 22.733-22.262 46.244-45.281 70.369-67.031l8.090-7.291 6.799 8.52c15.299 19.19 31.437 39.608 47.268 60.477 4.26-6.328 8.786-12.8 13.435-19.436 34.918-49.93 74.506-106.516 48.681-180.47-19.231-55.112-84.173-90.993-157.327-85.729-86.508 6.062-163.512 79.913-235.459 225.772-4.485 9.114-8.172 19.333-11.735 29.225-8.335 23.142-16.978 47.063-37.089 61.932l-20.173 14.909 3.973-24.76c21.115-131.727 83.005-258.847 165.581-340.050 49.951-49.193 131.912-80.978 208.794-80.978 88.822 0 183.992 46.162 184.648 175.718 0.573 121.344-74.363 200.151-134.595 263.475l-5.366 5.652zM989.942 543.314c-23.859 44.38-113.562 76.739-158.556 66.888-68.157-14.868-115.937-53.432-158.106-87.47-43.151-34.857-80.445-64.942-130.212-64.942-14.95 0-30.249 2.662-46.756 8.11l-26.214 8.663 14.213-23.654c32.645-54.333 70.758-80.753 116.511-80.753 37.171 0.020 75.223 17.838 112.927 40.919l8.458-25.068c19.149-56.709 102.502-140.82 178.381-140.82 1.516 0 3.031 0.041 4.547 0.123 33.116 1.475 60.764 20.132 79.974 54.006 39.363 69.366 34.918 188.129 4.833 243.999zM765.87 445.297c55.951 38.031 114.729 77.087 162.877 68.588 20.951-36.413 12.39-67.768 1.249-87.921-21.258-38.359-67.83-65.167-113.295-65.167-21.422 0-52.163 6.103-76.984 35.144l-17.469 20.419c14.602 9.236 29.164 19.128 43.622 28.938z" />
<glyph unicode="&#xe84a;" glyph-name="horse-riding" data-tags="horse-riding" d="M403.026 786.903c37.949 0 68.567 29.553 68.567 65.946 0 36.639-30.618 66.191-68.567 66.191-37.683 0-68.301-29.553-68.301-66.191 0-36.393 30.618-65.946 68.301-65.946zM911.606 596.521l-72.499 13.394-42.189-80.957c6.82-1.577 13.865-2.273 21.176-2.273 45.015 0.020 82.698 29.573 93.512 69.837zM20.48 459.837c0 53.658 44.995 90.563 100.598 90.563h206.602v153.928c0 36.618 33.772 66.171 71.7 66.171s71.66-29.553 71.66-66.171v-22.733l100.741-25.027c17.633-3.85 28.795-20.91 24.822-37.97-3.994-17.306-21.463-27.976-39.342-24.125l-86.221 19.558v-63.631h101.151l278.446 281.559-8.274-70.636 137.093-87.183c22.651-12.513 30.884-40.284 17.94-62.095-10.158-17.531-30.413-25.743-49.5-22.323l-11.059 2.15c-13.21-51.63-61.522-89.559-118.743-89.559-11.284 0-25.17 1.618-35.533 4.342l-106.721-204.902v-281.149c0-24.105-16.118-43.643-41.083-43.643-25.006 0-40.837 19.538-40.837 43.663v284.017h-232.325l-41.001-66.048 85.77-196.567c12.472-21.115 4.71-47.329-16.937-59.146-21.934-12.063-50.524-4.342-63.017 16.814l-101.13 227.901v72.54l-40.96-68.014v-211.497c0-24.125-26.153-43.663-51.118-43.663s-51.282 19.538-51.282 43.663v244.306l40.96 56.668v191.693l-40.96-55.050v-153.6h-61.44v155.197z" />
<glyph unicode="&#xe84b;" glyph-name="hospital" data-tags="hospital" d="M757.76 939.52c-11.264 0-20.48-9.216-20.48-20.48v-286.72c0-11.264-9.216-20.48-20.48-20.48h-409.6c-11.264 0-20.48 9.216-20.48 20.48v286.72c0 11.264-9.216 20.48-20.48 20.48h-184.32c-11.264 0-20.48-9.216-20.48-20.48v-942.080c0-11.264 9.216-20.48 20.48-20.48h184.32c11.264 0 20.48 9.216 20.48 20.48v327.68c0 11.264 9.216 20.48 20.48 20.48h409.6c11.264 0 20.48-9.216 20.48-20.48v-327.68c0-11.264 9.216-20.48 20.48-20.48h184.32c11.264 0 20.48 9.216 20.48 20.48v942.080c0 11.264-9.216 20.48-20.48 20.48h-184.32z" />
<glyph unicode="&#xe84c;" glyph-name="ice-fishing" data-tags="ice-fishing" d="M1003.52-10.65c-225.28-3.297-468.992 40.796-655.237 189.44v0c-0.963 1.188 1.516 2.355 1.516 4.28 0 3.297 4.465 6.144 8.028 6.144l183.931-0.246c9.073 0 16.65 7.127 16.65 16.138 0 6.615-2.929 11.141-9.81 14.705l-165.663 78.705c-3.338 1.905-5.181 5.222-5.181 9.236 0 3.092-5.161 5.693-3.256 7.598v0c0 0 198.922 177.562 629.002 173.527v-499.528zM627.487 270.561c21.729 0 39.363 17.531 39.363 39.076 0 21.606-17.633 38.912-39.363 38.912-21.484 0-39.117-17.326-39.117-38.912 0-21.545 17.633-39.076 39.117-39.076zM20.48 919.040h184.32v-143.36h-184.32v143.36zM389.12 919.040h614.4v-143.36h-614.4v143.36zM286.72 704c-20.48-4.977-26.604-19.681-26.604-36.721 0-17.080 6.124-31.785 26.604-37.233v-240.64c0-31.048-29.532-55.931-60.785-55.931-31.007 0-58.368 24.904-58.368 55.931 0 7.578 0.266 14.93 3.133 21.586l1.802-1.905 19.517-18.043-12.554 109.793-32.276-73.994c-9.769-22.753-7.434-37.437-7.434-37.437 0-44.81 38.564-81.326 83.64-81.326 45.322 0 83.763 36.516 83.763 81.326v241.111c20.48 5.468 26.235 19.907 26.235 36.762 0 17.060-5.755 31.764-26.235 37.192v214.569h-20.48v-215.040z" />
<glyph unicode="&#xe84d;" glyph-name="ice-skating" data-tags="ice-skating" d="M893.604 759.235c49.5 0 89.436 40.448 89.436 90.153 0 49.807-39.936 90.132-89.436 90.132-49.234 0-89.17-40.325-89.17-90.132-0.020-49.705 39.936-90.153 89.17-90.153zM634.88-23.040h245.76c0 0 20.48 2.109 20.48 20.48v20.48h20.48c0 0 8.417-55.48-38.031-61.44h-248.689v20.48zM61.44 161.28l163.84-163.84c0 0 13.496-5.079 26.44 7.864l12.943 13.046 22.057-20.91c0 0-36.762-53.658-73.81-24.719l-171.95 173.67 20.48 14.889zM694.374 227.799l0.287-163.185c0-30.679 21.627-55.521 52.019-55.521 27.873 0 52.040 32.461 52.040 55.521v227.082c0 15.811-3.564 30.167-14.090 40.284l-130.662 132.874 175.841 176.742c32.911 41.452 15.933 91.156 15.933 91.156-18.084 55.132-79.913 57.037-79.913 57.037l-451.154 0.123c-23.982 0-43.54-19.64-43.54-43.971 0-24.474 19.62-43.991 43.622-43.991l311.542-0.492-131.113-131.85c-18.821-19.395-28.365-41.206-28.365-69.714 0-27.382 10.793-51.855 28.897-69.734l198.656-202.363zM467.804 405.279c-4.26 4.055-8.049 8.479-11.53 13.189l-260.342-263.332c-19.702-15.974-26.112-44.114-14.295-67.564 13.558-26.87 46.346-37.54 72.95-23.716 3.645 1.925 6.922 4.198 10.056 6.717l267.223 270.172-64.061 64.532z" />
<glyph unicode="&#xe84e;" glyph-name="inline-skating" data-tags="inline-skating" d="M720.466 939.52c-46.203 0-83.702-38.072-83.702-84.767 0-46.879 37.499-84.726 83.702-84.726 46.469 0 84.111 37.847 84.111 84.726 0 46.694-37.663 84.767-84.111 84.767zM86.774 355.021c-7.25 11.796-22.487 15.38-34.079 8.090-11.694-7.352-15.217-22.712-7.946-34.529 7.291-11.571 22.467-15.135 34.324-7.967 11.448 7.393 14.95 22.733 7.7 34.406zM104.018 285.88c-7.25 11.571-22.487 15.155-34.304 7.803-11.469-7.209-14.971-22.671-7.721-34.243 7.27-11.981 22.508-15.38 33.956-8.090 11.694 7.373 15.237 22.753 8.069 34.529zM121.16 216.515c-7.148 11.919-22.692 15.36-34.181 8.008-11.817-7.291-15.217-22.63-7.926-34.529 7.148-11.551 22.671-15.073 34.161-7.782 11.715 7.27 15.217 22.753 7.946 34.304zM138.199 147.374c-7.25 11.571-22.487 15.135-33.935 8.11-11.837-7.578-15.237-22.917-8.090-34.611 7.27-11.796 22.508-15.36 34.304-8.008 11.469 7.352 14.991 22.733 7.721 34.509zM541.020 6.451c-13.169-4.424-20.46-18.452-16.241-31.683 4.342-13.292 18.309-20.378 31.273-16.282 13.046 4.28 20.296 18.35 16.22 31.416-4.239 13.23-18.207 20.439-31.252 16.548zM611.553 5.837c-13.107-3.994-20.214-18.248-16.036-31.273 4.219-13.312 18.268-20.644 31.252-16.364 12.923 4.178 20.173 18.412 15.995 31.498-4.301 13.066-18.002 20.419-31.212 16.138zM682.516 5.612c-13.271-4.219-20.562-18.248-16.22-31.539 4.178-13.046 18.166-20.378 31.252-16.118 12.943 3.994 20.152 18.166 15.831 31.478-3.932 13.087-17.94 20.48-30.863 16.179zM752.947 5.325c-12.923-4.28-20.193-18.35-16.036-31.457 4.321-13.189 18.33-20.378 31.252-16.2 13.025 4.301 20.152 18.166 16.036 31.355-4.219 13.292-18.268 20.398-31.252 16.302zM921.559 611.84h-146.555l-72.479 118.518c-12.513 26.767-38.728 45.179-69.693 46.428-6.042 0.307-11.51-0.594-17.060-1.823l-368.394-87.511c-22.282-5.263-36.25-27.587-30.925-50.278 4.997-22.487 26.931-36.393 49.193-31.314l245.985 44.81-186.962-325.55h-199.987l44.278-161.649c1.495-5.243 1.495 0.532 3.215-2.232 6.226-10.281 19.538-10.056 29.491-3.789 5.448 3.215 8.991 10.609 9.994 16.466l26.481 82.309 1.004 3.768c0 0 122.307 0.717 123.228 0.717 24.535 0 45.548 6.861 58.020 27.648l56.689 94.884 126.177-129.495-53.473-215.347c0 0 184.422 0 185.201 0 11.919 0 21.688 12.472 21.688 24.351 0 9.4-5.755 17.224-12.902 21.217l-79.954 45.384 38.38 153.088c0 0 9.523 32.543-20.664 62.341l-103.219 104.509c0 0 55.153 91.587 90.501 150.426l47.985-69.796c20.48 0 23.224 0 31.58 0h172.421c22.999 0 41.533 17.879 41.759 40.817 0.205 23.224-18.289 41.103-41.001 41.103z" />
<glyph unicode="&#xe84f;" glyph-name="insurance-agency" data-tags="insurance-agency" d="M522.465 900.772l-496.497-411.812h117.391v-491.52h737.28v491.52h128.369l-486.543 411.812zM633.692 140.8h-232.428l48.742 219.361c-29.471 20.48-48.742 51.323-48.742 89.088 0 62.218 52.040 111.391 116.204 111.391 64.205 0 116.224-51.057 116.224-113.275 0-37.786-19.272-66.458-48.722-86.876l48.722-219.689z" />
<glyph unicode="&#xe850;" glyph-name="jet-skiing" data-tags="jet-skiing" d="M337.51 716.534c43.663 5.263 74.65 45.691 69.489 90.173-5.161 44.503-44.831 76.063-88.494 70.82-43.663-5.55-74.527-45.691-69.366-90.173 5.407-44.524 44.708-76.083 88.371-70.82zM991.683 334.336c-4.219 2.15-328.643 170.045-328.643 170.045l-82.371 108.114-5.1 1.208c-11.244 10.506-22.61 9.544-43.090-1.925v-0.246c0-8.602-4.547-21.279 1.126-31.58l63.078-80.343 1.249-0.737-50.176-118.374-134.185 34.222-5.734 49.050 110.572 13.599c4.936 0.225 10.117 1.679 14.807 4.301 18.33 9.789 25.375 33.014 15.749 51.651-7.516 14.356-22.528 22.016-37.315 20.337l-112.62-13.865-10.097 85.135c-5.386 44.257-45.076 76.063-88.494 70.799-43.52-5.509-74.752-45.957-69.591-90.419l23.47-196.833c2.826-25.129 17.49-46.879 36.966-59.556l-176.886-21.524-55.153-139.182c2.109 0.942 4.444 1.188 6.328 2.13 22.774 10.772 48.128 16.527 73.011 16.527s49.992-5.734 72.54-16.261c14.316-6.676 30.044-10.035 45.302-10.035 15.38 0 30.863 3.359 44.954 9.789 22.774 10.772 47.882 16.527 73.011 16.527 24.883 0 49.93-5.734 72.253-16.261 14.541-6.676 30.269-10.035 45.548-10.035 15.483 0 30.74 3.359 45.056 9.789 22.774 10.772 48.148 16.527 73.011 16.527s49.992-5.734 72.294-16.261c5.407-2.376 11.284-4.055 17.142-5.734 90.378 24.207 250.47 70.799 293.642 110.264 12.657 11.428 15.032 30.802-1.659 39.158zM20.48 17.92c20.664 0 40.612 4.772 58.225 12.902 18.063 8.622 38.502 13.619 59.863 13.619s41.554-4.997 59.863-13.619c17.592-8.131 37.315-12.902 57.979-12.902 20.541 0 40.264 4.772 58.102 12.902 18.063 8.622 38.482 13.619 59.863 13.619 21.135 0 41.554-4.997 59.802-13.619 17.613-8.11 37.335-12.902 57.999-12.902 20.644 0 40.366 4.772 58.204 12.902 18.104 8.622 38.502 13.619 59.884 13.619 21.115 0 41.554-4.997 59.617-13.619 17.818-8.131 37.54-12.902 58.184-12.902 20.685 0 40.387 4.772 57.999 12.902 18.33 8.622 38.748 13.619 59.863 13.619 21.34 0 41.083-4.997 59.126-13.619 17.613-8.131 37.028-12.902 57.508-12.902v88.74c-20.48 0-39.895 4.731-57.528 12.882-18.043 8.643-38.134 13.414-59.474 13.414-21.115 0-41.37-4.772-59.679-13.414-17.613-8.131-37.233-12.882-57.917-12.882-20.644 0-40.305 4.731-58.143 12.882-18.063 8.643-38.482 13.414-59.597 13.414-21.381 0-41.779-4.772-59.884-13.414-17.838-8.131-37.54-12.882-58.184-12.882-20.664 0-40.366 4.731-57.979 12.882-18.248 8.643-38.666 13.414-59.802 13.414-21.361 0-41.8-4.772-59.863-13.414-17.838-8.131-37.56-12.882-58.102-12.882-20.664 0-40.387 4.731-57.979 12.882-18.309 8.643-38.502 13.414-59.863 13.414s-41.8-4.772-59.863-13.414c-17.613-8.151-37.56-12.882-58.225-12.882v-88.74z" />
</font>
</defs>
</svg>
